Вторая жизнь Уве / En man som heter Ove (2015) BDRip 720p | Line

 
Автор Сообщение

BOSS ®

Пол:

Стаж: 2 года 1 месяц

Сообщений: 3718

Откуда: ODESSA



Награды: 20 (Подробнее)

Top Releaser 3 (Количество: 1) Top Keeper 2 (Количество: 1) Mega Seeder 4 (Количество: 1)
Торрент-статистика

Создавать темы 29-Июл-2016 04:50

[Цитировать]

Вторая жизнь Уве / En man som heter Ove
Страна: Швеция
Производство: Nordisk Film, Nordsvensk Filmunderhallning, Sveriges Television (SVT)
Год выпуска: 2015
Жанр: драма, комедия
Продолжительность: 01:55:53
Режиссер: Ханнес Холм
Авторы сценария: Ханнес Холм, Фредрик Бакман
В ролях: Рольф Лассгорд, Бахар Парс, Зозан Акгюн, Тобиас Альмборг, Виктор Боуе, Филип Берг, Анна-Лена Бергелин, Лассе Карлссон
Описание: Кто же он такой, этот самый Уве..? Пожилой въедливый ворчун, достающий соседей вечными придирками. Он впадает в ярость при виде брошенного не туда мусора или неправильно припаркованной машины. И кроет на чем свет стоит легкомысленную семейку новоселов, в которой папаша и гвоздя вбить не способен. Зато Уве умеет все: виртуозно втиснуть свой «сааб» между крыльцом и почтовым ящиком, починить батарею, выколотить скидку у самого прижимистого торговца. В доме и в гараже у него всегда идеальный порядок. Как и в мыслях. Вот только зачем ему пистолет или крюк в потолке, или пригоршня снотворных? Возможно, ответ знает приблудный котище. Его не склонный к сантиментам Уве гнал-гнал, да так и не прогнал…

Перевод: Профессиональный (полное дублирование) | чистый звук
Субтитры: нет-Качество: BDRip 720p
Формат: МКV
Видео кодек: AVC
Аудио кодек: АС3 | DTS
Видео: 1280x536 (2.40:1), 24.000 fps, MPEG-4 AVC ~4 363 kbps avg, 0.265 bit/pixel
Аудио №1: 48.0 kHz, AC3 Dolby Digital, 2/0 (L,R) ch, ~192.00 kbps | RUS
Аудио №2: 48.0 kHz, Digital Theater Systems, 3/2 (L,C,R,l,r) + LFE ch, ~1509 kbps | ENG
Дата премьеры (мир): 13 декабря 2015
Дата премьеры (РФ): 30 июня 2016, «Русский Репортаж»

Media Info

General
Уникальный идентификатор : 171578812998428731184679307507949564282 (0x8114E09BD1A9AA37815BE1B7EF56F17A)
Полное имя : A.Man.Called.Ove.2015.D.720p.BluRay.mkv
Формат : Matroska
Версия формата : Version 4 / Version 2
Размер файла : 5,01 Гбайт
Продолжительность : 1 ч. 55 м.
Общий поток : 6187 Кбит/сек
Дата кодирования : UTC 2016-07-28 20:18:25
Программа кодирования : mkvmerge v8.3.0 ('Over the Horizon') 64bit
Библиотека кодирования : libebml v1.3.1 + libmatroska v1.4.2
Видео
Идентификатор : 1
Формат : AVC
Формат/Информация : Advanced Video Codec
Профиль формата : High@L4.1
Параметр CABAC формата : Да
Параметр ReFrames формата : 12 кадров
Идентификатор кодека : V_MPEG4/ISO/AVC
Продолжительность : 1 ч. 55 м.
Битрейт : 4363 Кбит/сек
Ширина : 1280 пикселей
Высота : 536 пикселей
Соотношение сторон : 2,40:1
Режим частоты кадров : Постоянный
Частота кадров : 24,000 кадра/сек
Цветовое пространство : YUV
Субдискретизация насыщенности : 4:2:0
Битовая глубина : 8 бит
Тип развёртки : Прогрессивная
Бит/(Пиксели*Кадры) : 0.265
Размер потока : 3,53 Гбайт (71%)
Библиотека кодирования : x264 core 142 r2431+42 c69a006 tMod [8-bit@all X86_64]
Настройки программы : cabac=1 / ref=12 / deblock=1:-3:-3 / analyse=0x3:0x133 / me=umh / subme=11 / psy=1 / fade_compensate=0.00 / psy_rd=1.05:1.00 / mixed_ref=1 / me_range=32 / chroma_me=1 / trellis=2 / 8x8dct=1 / cqm=0 / deadzone=21,11 / fast_pskip=0 / chroma_qp_offset=-4 / threads=12 / lookahead_threads=2 / sliced_threads=0 / nr=0 / decimate=0 / interlaced=0 / bluray_compat=0 / constrained_intra=0 / fgo=0 / bframes=8 / b_pyramid=2 / b_adapt=2 / b_bias=0 / direct=3 / weightb=1 / open_gop=0 / weightp=2 / keyint=240 / keyint_min=24 / scenecut=40 / intra_refresh=0 / rc_lookahead=60 / rc=crf / mbtree=0 / crf=17.9000 / qcomp=0.60 / qpmin=0:0:0 / qpmax=69:69:69 / qpstep=4 / vbv_maxrate=40000 / vbv_bufsize=30000 / crf_max=0.0 / nal_hrd=none / filler=0 / ip_ratio=1.40 / pb_ratio=1.30 / aq=1:1.00 / aq-sensitivity=10.00 / aq-factor=1.00:1.00:1.00 / aq2=0 / aq3=0
Язык : Swedish
Default : Да
Forced : Нет
Аудио #1
Идентификатор : 2
Формат : AC-3
Формат/Информация : Audio Coding 3
Расширение режима : CM (complete main)
Параметр Endianness формата : Big
Идентификатор кодека : A_AC3
Продолжительность : 1 ч. 55 м.
Вид битрейта : Постоянный
Битрейт : 192 Кбит/сек
Каналы : 2 канала
Расположение каналов : Front: L R
Частота : 48,0 КГц
Битовая глубина : 16 бит
Метод сжатия : С потерями
Размер потока : 159 Мбайт (3%)
Язык : Russian
Default : Да
Forced : Нет
Аудио #2
Идентификатор : 3
Формат : DTS
Формат/Информация : Digital Theater Systems
Режим : 16
Параметр Endianness формата : Big
Идентификатор кодека : A_DTS
Продолжительность : 1 ч. 55 м.
Вид битрейта : Постоянный
Битрейт : 1509 Кбит/сек
Каналы : 6 каналов
Расположение каналов : Front: L C R, Side: L R, LFE
Частота : 48,0 КГц
Битовая глубина : 24 бит
Метод сжатия : С потерями
Размер потока : 1,22 Гбайт (24%)
Язык : English
Default : Нет
Forced : Нет
Меню
00:00:00.000 : en:Chapter 01
00:09:59.875 : en:Chapter 02
00:19:59.708 : en:Chapter 03
00:29:59.791 : en:Chapter 04
00:39:59.916 : en:Chapter 05
00:50:00.000 : en:Chapter 06
00:59:59.625 : en:Chapter 07
01:09:59.750 : en:Chapter 08
01:19:59.541 : en:Chapter 09
01:29:59.708 : en:Chapter 10
01:39:59.750 : en:Chapter 11
01:49:59.625 : en:Chapter 12
01:55:51.791 : en:Chapter 13

Скриншоты

[Профиль] [ЛС]
Показать сообщения:    

Текущее время: Сегодня 08:31

Часовой пояс: GMT



Вы не можете начинать темы
Вы не можете отвечать на сообщения
Вы не можете редактировать свои сообщения
Вы не можете удалять свои сообщения
Вы не можете голосовать в опросах
Вы не можете прикреплять файлы к сообщениям
Вы не можете скачивать файлы