Всё, что я люблю / All That I Love / Wszystko, co kocham (Яцек Борцух / Jacek Borcuch) [2009, Польша, драма, мелодрама, DVDRip] DVO (Макс Коллапс и Анна Полевская (RealFake))

 
Автор Сообщение

painkiller ®

Стаж: 2 года 7 месяцев

Сообщений: 582



Награды: Нет

Торрент-статистика

Создавать темы 14-Авг-2014 13:01

[Цитировать]

Всё, что я люблю / All That I Love / Wszystko, co kocham
Страна: Польша
Жанр: драма, мелодрама
Год выпуска: 2009
Продолжительность: 01:31:15
Перевод: Любительский (двухголосый закадровый) Макс Коллапс и Анна Полевская (RealFake)
Cубтитры: русские (Текст песен)
Оригинальная аудиодорожка: нет-Режиссер: Яцек Борцух / Jacek Borcuch
В ролях: Матеуш Косчукевич, Ольга Фрыч, Якуб Гершал, Анджей Хыра, Анна Радван, Катажина Херман, Матеуш Банасюк, Марек Калита
Описание: Главные герои — старшеклассники живут в маленьком прибалтийском городке. На дворе 1981 год. Молодость, любовь, свобода, бунт и музыка! Это пора, когда все происходит в первый раз, а у любви — вкус лимонада.-Доп. информация:
Релиз группы RealFake
Перевод: MMManja
Работа со звуком: Макс Коллапс
Сэмпл: http://yadi.sk/d/55qUAlRyMCVgp
Трейлер: https://www.youtube.com/watch?v=dgcR2OAgRx8-Качество видео: DVDRip
Формат видео: AVI
Видео: XviD, 1 940 Kbps, 720х384, 25.000 fps
Аудио: MP3, 192 Kbps, 48.0 KHz
Формат субтитров: hardsub (неотключаемые)

MediaInfo

D:\Фильмы\раздача\Wszystko, co kocham (RealFake).avi
General
Complete name : D:\Фильмы\раздача\Wszystko, co kocham (RealFake).avi
Format : AVI
Format/Info : Audio Video Interleave
File size : 1.37 GiB
Duration : 1h 31mn
Overall bit rate : 2 142 Kbps
Writing application : VirtualDubMod 1.5.10.2 (build 2542/release)
Writing library : VirtualDubMod build 2542/release
Video #0
ID : 0
Format : MPEG-4 Visual
Format profile : Advanced Simple@L5
Format settings, BVOP : 2
Format settings, QPel : No
Format settings, GMC : No warppoints
Format settings, Matrix : Default (MPEG)
Codec ID : XVID
Codec ID/Hint : XviD
Duration : 1h 31mn
Bit rate : 1 940 Kbps
Width : 720 pixels
Height : 384 pixels
Display aspect ratio : 1.85:1
Frame rate : 25.000 fps
Color space : YUV
Chroma subsampling : 4:2:0
Bit depth : 8 bits
Scan type : Progressive
Compression mode : Lossy
Bits/(Pixel*Frame) : 0.281
Stream size : 1.24 GiB (91%)
Writing library : XviD 64
Audio #1
ID : 1
Format : MPEG Audio
Format version : Version 1
Format profile : Layer 3
Codec ID : 55
Codec ID/Hint : MP3
Duration : 1h 31mn
Bit rate mode : Constant
Bit rate : 192 Kbps
Channel count : 2 channels
Sampling rate : 48.0 KHz
Compression mode : Lossy
Stream size : 125 MiB (9%)
Alignment : Aligned on interleaves
Interleave, duration : 40 ms (1.00 video frame)
Interleave, preload duration : 504 ms

Скриншоты

[Профиль] [ЛС]

Создавать темы 06-Авг-2015 23:13 (спустя 11 месяцев 23 дня)

Топик был перенесен из форума Фильмы до 2014 года в форум Фильмы до 2012 года
sergej644
 

Создавать темы 12-Июн-2016 08:48 (спустя 1 год 9 месяцев)

Топик был перенесен из форума Фильмы 2011 года в форум Фильмы 2009 года
Russian Mafia
 
Показать сообщения:    

Текущее время: Сегодня 04:27

Часовой пояс: GMT



Вы не можете начинать темы
Вы не можете отвечать на сообщения
Вы не можете редактировать свои сообщения
Вы не можете удалять свои сообщения
Вы не можете голосовать в опросах
Вы не можете прикреплять файлы к сообщениям
Вы не можете скачивать файлы