Всё, что мне осталось от тебя / Senden Bana Kalan (Абдулла Огуз) [2015 г., драма, DVDRip-AVC] [DVO (Раим Закиров, Ирина Котова)]

 
Автор Сообщение

Bathory ®

Пол:

Стаж: 9 месяцев

Сообщений: 169



Награды: 3 (Подробнее)

Друг (Количество: 1) Girls (Количество: 1) За внесенный вклад в развитие сайта (Количество: 1)
Торрент-статистика

Создавать темы 26-Мар-2016 15:11

[Цитировать]

Всё, что мне осталось от тебя / Senden Bana Kalan- Информация о фильме
Название: Всё, что мне осталось от тебя
Оригинальное название: Senden Bana Kalan
Год выхода: 2015
Жанр: драма
Режиссер: Абдулла Огуз
В ролях: Неслихан Атагюль, Экин Коч, Хайати Акбас, Сильвио Бехмоарас, Вильма Эллес, Гамзе Пелин Гёче, Зейнеп Канконде, Хакан Карахан, Дога Конакоглу, Дила Пекдемир
О фильме:
Вся эта история началась еще 10 лет тому назад, когда случилась эта трагедия. Маленький мальчик Озгюр потерял своих родителей. Тогда они жили в деревне, вели хозяйство и у них был на содержании детский дом для сирот. Именно здесь, Озгюр встретил свою первую детскую любовь — девочку Элиф. Когда приехал дед забирать осиротевшего мальчика, Озгюр сказал Элиф: «Я вернусь через десять дней».
Но прошло 10 лет… Молодой парень Озгюр живёт в Стамбуле на деньги своего богатого дедушки. Он разгильдяй, тусовщик и драчун. Всё ему сходит с рук, ведь он богач и скоро получит в наследство всё состояние деда. Дорогие машины, шикарные апартаменты, красивые девушки и ночные клубы. Жизнь удалась и ему наконец исполняется 18. Но вдруг всплывает небольшая деталь в завещании дедушки: Озгюр получит наследство, если закончит старшую школу в той деревне, где он родился.
Маленькая школа в деревне, с привычной жизнью придётся проститься, но будущий миллионер не собирается так просто сдаваться… Он поклялся перед портретом деда, что заберет у него все его заработанные деньги! Но кто сказал, что человек не может измениться? Встретив в этой деревне свою девочку Элиф, судьба Озгюра круто меняется.

Страна: Турция
Студия: ANS Production
Продолжительность: 01:52:05
Перевод: Любительский (двухголосый закадровый) - Раим Закиров, Ирина Котова
Файл
Кодек: AVC
Качество: DVDRip-AVC
Видео: 720x424@1024x424, 1668 kbps, 25 fps, 0,219 Bits/(Pixel*Frame)
Звук: AC3, 48 kHz, 2 ch, 192 kbps - RUS [DVO]
Субтитры: русские

MI

General
Unique ID : 236759093503721253680968717272741287957 (0xB21E248D2163B3AE8E38B96950479815)
Complete name : E:Senden.Bana.Kalan.2015.DVDRip-AVC_by_Bathory.mkv
Format : Matroska
Format version : Version 4 / Version 2
File size : 1.46 GiB
Duration : 1h 52mn
Overall bit rate : 1 862 Kbps
Encoded date : UTC 2016-03-26 14:27:56
Writing application : mkvmerge v8.8.0 ('Wind at my back') 64bit
Writing library : libebml v1.3.3 + libmatroska v1.4.4
DURATION : 01:48:18.156000000
NUMBER_OF_FRAMES : 960
NUMBER_OF_BYTES : 1147527
_STATISTICS_WRITING_APP : mkvmerge v8.8.0 ('Wind at my back') 64bit
_STATISTICS_WRITING_DATE_UTC : 2016-03-26 14:27:56
_STATISTICS_TAGS : BPS DURATION NUMBER_OF_FRAMES NUMBER_OF_BYTES
Video
ID : 1
Format : AVC
Format/Info : Advanced Video Codec
Format profile : High@L4.1
Format settings, CABAC : Yes
Format settings, ReFrames : 12 frames
Codec ID : V_MPEG4/ISO/AVC
Duration : 1h 52mn
Bit rate : 1 668 Kbps
Width : 720 pixels
Height : 424 pixels
Display aspect ratio : 2.40:1
Frame rate mode : Constant
Frame rate : 25.000 fps
Color space : YUV
Chroma subsampling : 4:2:0
Bit depth : 8 bits
Scan type : Progressive
Bits/(Pixel*Frame) : 0.219
Stream size : 1.28 GiB (88%)
Writing library : x264 core 148 r2665 a01e339
Encoding settings : cabac=1 / ref=12 / deblock=1:-3:-2 / analyse=0x3:0x133 / me=umh / subme=11 / psy=1 / psy_rd=1.05:0.00 / mixed_ref=1 / me_range=32 / chroma_me=1 / trellis=2 / 8x8dct=1 / cqm=0 / deadzone=21,11 / fast_pskip=0 / chroma_qp_offset=-2 / threads=12 / lookahead_threads=3 / sliced_threads=0 / nr=0 / decimate=0 / interlaced=0 / bluray_compat=0 / constrained_intra=0 / bframes=16 / b_pyramid=2 / b_adapt=2 / b_bias=0 / direct=3 / weightb=1 / open_gop=0 / weightp=2 / keyint=250 / keyint_min=25 / scenecut=0 / intra_refresh=0 / rc_lookahead=60 / rc=2pass / mbtree=1 / bitrate=1668 / ratetol=1.0 / qcomp=0.70 / qpmin=0 / qpmax=69 / qpstep=4 / cplxblur=15.0 / qblur=0.5 / vbv_maxrate=62500 / vbv_bufsize=78125 / nal_hrd=none / filler=0 / ip_ratio=1.40 / aq=2:1.00
Default : Yes
Forced : No
Audio
ID : 2
Format : AC-3
Format/Info : Audio Coding 3
Mode extension : CM (complete main)
Format settings, Endianness : Big
Codec ID : A_AC3
Duration : 1h 52mn
Bit rate mode : Constant
Bit rate : 192 Kbps
Channel(s) : 2 channels
Channel positions : Front: L R
Sampling rate : 48.0 KHz
Bit depth : 16 bits
Compression mode : Lossy
Stream size : 154 MiB (10%)
Language : new
Default : Yes
Forced : No
Text
ID : 3
Format : VobSub
Muxing mode : zlib
Codec ID : S_VOBSUB
Codec ID/Info : The same subtitle format used on DVDs
Language : Russian
Default : Yes
Forced : No

Скриншоты

Анаморфные скриншоты

Автор рипа: Bathory
[Профиль] [ЛС]
Кто просматривает тему:

Форум Тема Автор Размер
Фильмы 2011 года Всё, что было раньше, чем завтра / От вчера до завтра / All the Days before Tomorrow (Франсуа Домпьер / Francois Dompierre) [2007, США, комедия, мелодрама, роуд-муви, DVB-AVC] DVO (Kino Polska) TorrentFilm 869 MB
Фильмы 2015 года Всё, что мне осталось от тебя / Senden Bana Kalan (Абдуллах Огуз / Abdullah Oguz) [2015, Турция, Драма, WEBRip] DVO TorrentFilm 1.39 GB
Фильмы (HD DVD, Blu-ray и BDRemux) Все, что у меня есть / Freeheld (2015) BDRemux 1080p от KinoRay | L2, L1 Russian Mafia 12.93 GB
Фильмы 2015 года Все, что у меня есть / Freeheld (2015) HDRip | D | iTunes BOSS 1.37 GB
Фильмы 2009 года Всё, что я люблю / All That I Love / Wszystko, co kocham (Яцек Борцух / Jacek Borcuch) [2009, Польша, драма, мелодрама, DVDRip] DVO (Макс Коллапс и Анна Полевская (RealFake)) painkiller 1.37 GB
Разная литература Громаковский А.А. - 3 в 1. Все, что нужно для сдачи экзамена в ГИБДД (2016) PDF достали все 41 MB
Компьютерная литература (Программирование) Просто о сложном - Голышева А.В., Корнеев В.Н. - Excel 2007 "Без воды". Всё, что нужно для уверенной работы. [2008, DjVu, RUS] TorrentFilm 14 MB
Фильмы 2009 года Угрызения 3: Всё, что вы можете съесть / Eating Out: All You Can Eat (Гленн Гэйлорд) [2009, США, драма, мелодрама, комедия, DVDRip] DVO + Sub Rus TorrentFilm 698 MB
Показать сообщения:    

Текущее время: Сегодня 20:27

Часовой пояс: GMT



Вы не можете начинать темы
Вы не можете отвечать на сообщения
Вы не можете редактировать свои сообщения
Вы не можете удалять свои сообщения
Вы не можете голосовать в опросах
Вы не можете прикреплять файлы к сообщениям
Вы не можете скачивать файлы