Всё, что мне осталось от тебя / Senden Bana Kalan (Абдуллах Огуз / Abdullah Oguz) [2015, Турция, Драма, WEBRip] DVO

 
Автор Сообщение

TorrentFilm ®

Пол:

Стаж: 2 года

Сообщений: 7741



Награды: Нет

Торрент-статистика

Создавать темы 03-Окт-2015 00:06

[Цитировать]

Всё, что мне осталось от тебя / Senden Bana Kalan
Страна: Турция, ANS Production
Жанр: Драма
Год выпуска: 2015
Продолжительность: 01:51:55
Перевод: Любительский (двухголосый закадровый) Раим Закиров, Ирина Котова
Cубтитры: нет
Оригинальная аудиодорожка: нет
Режиссер: Абдуллах Огуз / Abdullah Oğuz
В ролях: Неслихан Атагюль, Экин Коч, Зейнеп Канконде, Сабри Озменер, Тайфун Сав, Дога Конакоглу, Дила Пекдемир, Силвйо Бехмоарас, Гамзе Пелин Гёкче, Бугра Озмюлдюр, Хакан Карахан, Вильма Эллес
Описание: Вся эта история началась еще 10 лет тому назад, когда случилась эта трагедия. Маленький мальчик Озгюр потерял своих родителей. Тогда они жили в деревне, вели хозяйство и у них был на содержании детский дом для сирот. Именно здесь, Озгюр встретил свою первую детскую любовь - девочку Элиф. Когда приехал дед забирать осиротевшего мальчика, Озгюр сказал Элиф: "Я вернусь через десять дней". Но прошло 10 лет... Молодой парень Озгюр живёт в Стамбуле на деньги своего богатого дедушки. Он разгильдяй, тусовщик и драчун. Всё ему сходит с рук, ведь он богач и скоро получит в наследство всё состояние деда. Дорогие машины, шикарные апартаменты, красивые девушки и ночные клубы. Жизнь удалась и ему наконец исполняется 18. Но вдруг всплывает небольшая деталь в завещании дедушки: Озгюр получит наследство, если закончит старшую школу в той деревне, где он родился. Маленькая школа в деревне, с привычной жизнью придётся проститься, но будущий миллионер не собирается так просто сдаваться... Он поклялся перед портретом деда, что заберет у него все его заработанные деньги! Но кто сказал, что человек не может измениться? Встретив в этой деревне свою девочку Элиф, судьба Озгюра круто меняется.
Доп. информация: Релиз - shachter58. Перевод: Любительский (двухголосый закадровый) Раим Закиров, Ирина Котова. Озвучено по переводу группы ВКонтакте "Fatih Harbiye|Kara Sevda❤Кадир и Неслихан❤"
Сэмпл: http://multi-up.com/1069115
Качество видео: WEBRip
Формат видео: AVI
Видео: MPEG-4 Visual, XviD, 720x304 (1:2.35), 1 571 Kbps, 25.000 fps, Bits/(Pixel*Frame): 0.287
Аудио: Audio Coding 3, АС-3, 192 Kbps, 2 channels, 48.0 KHz - Русский

MediaInfo

General
Complete name: I:\КИНО ТУРЦИИ\ГОТОВЫЕ РАЗДАЧИ ФИЛЬМОВ\Senden.Bana.Kalan.2015.russ.L2.WEBRip.avi
Format : AVI
Format/Info : Audio Video Interleave
File size : 1.39 GiB
Duration : 1h 51mn
Overall bit rate : 1 773 Kbps
Video
ID : 0
Format : MPEG-4 Visual
Format profile : Advanced Simple@L5
Format settings, BVOP : 2
Format settings, QPel : No
Format settings, GMC : No warppoints
Format settings, Matrix : Default (H.263)
Codec ID : XVID
Codec ID/Hint : XviD
Duration : 1h 51mn
Bit rate : 1 571 Kbps
Width : 720 pixels
Height : 304 pixels
Display aspect ratio : 2.35:1
Frame rate : 25.000 fps
Color space : YUV
Chroma subsampling : 4:2:0
Bit depth : 8 bits
Scan type : Progressive
Compression mode : Lossy
Bits/(Pixel*Frame) : 0.287
Stream size : 1.23 GiB (89%)
Writing library : XviD 63
Audio
ID : 1
Format : AC-3
Format/Info : Audio Coding 3
Mode extension : CM (complete main)
Format settings, Endianness : Big
Codec ID : 2000
Duration : 1h 51mn
Bit rate mode : Constant
Bit rate : 192 Kbps
Channel(s) : 2 channels
Channel positions : Front: L R
Sampling rate : 48.0 KHz
Compression mode : Lossy
Stream size : 154 MiB (11%)
Alignment : Split accross interleaves
Interleave, duration : 40 ms (1.00 video frame)
Interleave, preload duration : 500 ms

Скриншот c названием фильма

Скриншоты


[Профиль] [ЛС]
Кто просматривает тему:

Форум Тема Автор Размер
Фильмы 2011 года Всё, что было раньше, чем завтра / От вчера до завтра / All the Days before Tomorrow (Франсуа Домпьер / Francois Dompierre) [2007, США, комедия, мелодрама, роуд-муви, DVB-AVC] DVO (Kino Polska) TorrentFilm 869 MB
Фильмы 2015 года Всё, что мне осталось от тебя / Senden Bana Kalan (Абдулла Огуз) [2015 г., драма, DVDRip-AVC] [DVO (Раим Закиров, Ирина Котова)] Bathory 1.46 GB
Фильмы (HD DVD, Blu-ray и BDRemux) Все, что у меня есть / Freeheld (2015) BDRemux 1080p от KinoRay | L2, L1 Russian Mafia 12.93 GB
Фильмы 2015 года Все, что у меня есть / Freeheld (2015) HDRip | D | iTunes BOSS 1.37 GB
Фильмы 2009 года Всё, что я люблю / All That I Love / Wszystko, co kocham (Яцек Борцух / Jacek Borcuch) [2009, Польша, драма, мелодрама, DVDRip] DVO (Макс Коллапс и Анна Полевская (RealFake)) painkiller 1.37 GB
Разная литература Громаковский А.А. - 3 в 1. Все, что нужно для сдачи экзамена в ГИБДД (2016) PDF достали все 41 MB
Компьютерная литература (Программирование) Просто о сложном - Голышева А.В., Корнеев В.Н. - Excel 2007 "Без воды". Всё, что нужно для уверенной работы. [2008, DjVu, RUS] TorrentFilm 14 MB
Фильмы 2009 года Угрызения 3: Всё, что вы можете съесть / Eating Out: All You Can Eat (Гленн Гэйлорд) [2009, США, драма, мелодрама, комедия, DVDRip] DVO + Sub Rus TorrentFilm 698 MB
Показать сообщения:    

Текущее время: Сегодня 02:45

Часовой пояс: GMT



Вы не можете начинать темы
Вы не можете отвечать на сообщения
Вы не можете редактировать свои сообщения
Вы не можете удалять свои сообщения
Вы не можете голосовать в опросах
Вы не можете прикреплять файлы к сообщениям
Вы не можете скачивать файлы