Всё просто (2012) HDTVRip 720p от MediaClub

 
Автор Сообщение

sergej644 ®

Пол:

Стаж: 4 года 11 месяцев

Сообщений: 6038

Откуда: Soviet Union



Награды: Нет

Торрент-статистика

Создавать темы 27-Окт-2014 18:16

[Цитировать]

Информация о фильме
Оригинальное название: Всё просто
Год выхода: 2012
Жанр: Мелодрама, комедия
Режиссер: Соня Карпунина
В ролях: Соня Карпунина, Агния Кузнецова, Клим Шипенко, Константин Крюков, Александр Яценко, Артем Быстров, Любовь Толкалина, Михаил Бабичев, Александр Самойленко, Донатас Грудович
О фильме:
Надя из Питера, учится в Лондоне. Родители создают возможность жить без особых забот и хлопот. Молодой человек Женя работает в Москве в крупной компании и подает большие надежды. Одно расстройство — из-за перспективной работы Женя переехал в Москву, а Надя осталась в Лондоне. 3000 километров — слишком далеко. И Надя решает сделать Жене сюрприз — приехать в гости без предупреждения. В итоге, сюрпризы ожидают не только Женю, но и Надю.

Страна: Россия
Студия: ВайТ Медиа
Продолжительность: 01:34:25
Язык: Русский
Файл
Кодек: MPEG-4 AVC
Качество: HDTVRip 720p
Видео: 3250 Кбит/с, 1280x536, 25.000 кадр/с
Звук: Русский (АС3, 2 ch, 192 Кбит/с)
Семпл

Скриншоты

MI

Общее
Полное имя                               : Vse.prosto.2012.x264.HDTVRip(720p).MediaClub.mkv
Формат                                   : Matroska
Версия формата                           : Version 2
Размер файла                             : 2,27 Гбайт
Продолжительность                        : 1 ч. 34 м.
Общий поток                              : 3444 Кбит/сек
Название фильма                          : MediaClub
Дата кодирования                         : UTC 2014-10-27 16:58:27
Программа кодирования                    : mkvmerge v5.4.0 ('Piper') built on Mar 10 2012 13:34:39
Библиотека кодирования                   : libebml v1.2.3 + libmatroska v1.3.0
Видео
Идентификатор                            : 1
Формат                                   : AVC
Формат/Информация                        : Advanced Video Codec
Профиль формата                          : High@L4.1
Параметр CABAC формата                   : Да
Параметр ReFrames формата                : 10 кадров
Идентификатор кодека                     : V_MPEG4/ISO/AVC
Продолжительность                        : 1 ч. 34 м.
Битрейт                                  : 3250 Кбит/сек
Ширина                                   : 1280 пикселей
Высота                                   : 536 пикселей
Соотношение сторон                       : 2,40:1
Режим частоты кадров                     : Постоянный
Частота кадров                           : 25,000 кадров/сек
Цветовое пространство                    : YUV
Субдискретизация насыщенности            : 4:2:0
Битовая глубина                          : 8 бит
Тип развёртки                            : Прогрессивная
Бит/(Пиксели*Кадры)                      : 0.189
Размер потока                            : 2,10 Гбайт (92%)
Библиотека кодирования                   : x264 core 125 r2208 d9d2288
Настройки программы                      : cabac=1 / ref=10 / deblock=1:-3:-2 / analyse=0x3:0x133 / me=umh / subme=10 / psy=1 / psy_rd=1.00:0.20 / mixed_ref=1 / me_range=48 / chroma_me=1 / trellis=2 / 8x8dct=1 / cqm=0 / deadzone=21,11 / fast_pskip=0 / chroma_qp_offset=-3 / threads=6 / lookahead_threads=1 / sliced_threads=0 / nr=0 / decimate=0 / interlaced=0 / bluray_compat=0 / constrained_intra=0 / bframes=8 / b_pyramid=2 / b_adapt=2 / b_bias=0 / direct=3 / weightb=1 / open_gop=0 / weightp=2 / keyint=250 / keyint_min=25 / scenecut=40 / intra_refresh=0 / rc=2pass / mbtree=0 / bitrate=3250 / ratetol=1.0 / qcomp=0.60 / qpmin=0 / qpmax=69 / qpstep=4 / cplxblur=20.0 / qblur=0.5 / ip_ratio=1.40 / pb_ratio=1.30 / aq=1:1.00
Default                                  : Да
Forced                                   : Нет
Аудио
Идентификатор                            : 2
Формат                                   : AC-3
Формат/Информация                        : Audio Coding 3
Расширение режима                        : CM (complete main)
Параметр Endianness формата              : Big
Идентификатор кодека                     : A_AC3
Продолжительность                        : 1 ч. 34 м.
Вид битрейта                             : Постоянный
Битрейт                                  : 192 Кбит/сек
Каналы                                   : 2 канала
Расположение каналов                     : Front: L R
Частота                                  : 48,0 КГц
Битовая глубина                          : 16 бит
Метод сжатия                             : С потерями
Размер потока                            : 130 Мбайт (6%)
Язык                                     : Russian
Default                                  : Да
Forced                                   : Нет
Релиз от:
[Профиль] [ЛС]

Создавать темы 06-Авг-2015 22:19 (спустя 9 месяцев 10 дней)

Топик был перенесен из форума Фильмы до 2014 года в форум Фильмы (HD Rips | 720p, 1080p)
sergej644
 
Кто просматривает тему:

Показать сообщения:    

Текущее время: Сегодня 20:03

Часовой пояс: GMT



Вы не можете начинать темы
Вы не можете отвечать на сообщения
Вы не можете редактировать свои сообщения
Вы не можете удалять свои сообщения
Вы не можете голосовать в опросах
Вы не можете прикреплять файлы к сообщениям
Вы не можете скачивать файлы