Всё о мужчинах (2016) HDRip | КПК | Лицензия

 
Автор Сообщение

Шкипер ®

Пол:

Стаж: 1 год 7 месяцев

Сообщений: 52



Награды: Нет

Торрент-статистика

Создавать темы 16-Окт-2016 11:33

[Цитировать]

Информация о фильме
Название: Всё о мужчинах
Год выхода: 2016
Жанр: Комедия
Режиссер: Михаил Жерневский, Леонид Марголин
В ролях: Дмитрий Нагиев, Анна Хилькевич, Игорь Верник, Сергей Белоголовцев, Грант Тохатян, Владимир Епифанцев, Екатерина Скулкина
О фильме: Это история о том, какими разными могут быть мужчины. О том, что мужчины — это, в первую очередь, сложные решения и настоящие поступки. О том, в чём мужчины могут быть сильны, а в чём комичны. О том, за что их можно и нужно любить…

Страна: Россия
Студия: Enjoy Movies, Fresh Film
Продолжительность: 01:18:48
Перевод: Не требуется | лицензия
Файл
Кодек: h264
Качество: HDRip| КПК
Видео: MPEG4 Video (H264) 496x208 (2.40:1), 24fps, 350kbps, 0.141 Bits/Pixel
Звук: AAC, 44100Hz, 2ch, 126kbps
Субтитры: Отсутствуют
Семпл

MI

General
Complete name : D:Изготовление рипаVsiyo.O.MuzCHinaX.2O16.HDRip by shkiper.mp4
Format : MPEG-4
Format profile : Base Media
Codec ID : isom
File size : 269 MiB
Duration : 1h 18mn
Overall bit rate mode : Variable
Overall bit rate : 478 Kbps
Encoded date : UTC 2016-10-15 09:25:26
Tagged date : UTC 2016-10-15 09:25:26
Video
ID : 1
Format : AVC
Format/Info : Advanced Video Codec
Format profile : Baseline@L3.0
Format settings, CABAC : No
Format settings, ReFrames : 1 frame
Codec ID : avc1
Codec ID/Info : Advanced Video Coding
Duration : 1h 18mn
Bit rate : 350 Kbps
Maximum bit rate : 989 Kbps
Width : 496 pixels
Height : 208 pixels
Display aspect ratio : 2.40:1
Frame rate mode : Constant
Frame rate : 24.000 fps
Color space : YUV
Chroma subsampling : 4:2:0
Bit depth : 8 bits
Scan type : Progressive
Bits/(Pixel*Frame) : 0.141
Stream size : 197 MiB (73%)
Title : Imported with GPAC 0.4.6-DEV (internal rev. 5)
Writing library : x264 core 67 r1165M 6841c5e
Encoding settings : cabac=0 / ref=1 / deblock=1:0:0 / analyse=0x1:0 / me=hex / subme=6 / psy_rd=1.0:0.0 / mixed_ref=0 / me_range=16 / chroma_me=1 / trellis=0 / 8x8dct=0 / cqm=0 / deadzone=21,11 / chroma_qp_offset=-2 / threads=3 / nr=0 / decimate=1 / mbaff=0 / bframes=0 / keyint=250 / keyint_min=25 / scenecut=40 / rc=2pass / bitrate=350 / ratetol=1.0 / qcomp=0.60 / qpmin=10 / qpmax=51 / qpstep=4 / cplxblur=20.0 / qblur=0.5 / vbv_maxrate=1500 / vbv_bufsize=2000 / ip_ratio=1.40 / aq=1:1.00
Encoded date : UTC 2016-10-15 09:25:26
Tagged date : UTC 2016-10-15 09:25:48
Audio
ID : 2
Format : AAC
Format/Info : Advanced Audio Codec
Format profile : LC
Codec ID : 40
Duration : 1h 18mn
Bit rate mode : Variable
Bit rate : 126 Kbps
Maximum bit rate : 258 Kbps
Channel count : 2 channels
Channel positions : Front: L R
Sampling rate : 44.1 KHz
Compression mode : Lossy
Stream size : 70.8 MiB (26%)
Title : Imported with GPAC 0.4.6-DEV (internal rev. 5)
Encoded date : UTC 2016-10-15 09:25:40
Tagged date : UTC 2016-10-15 09:25:48

Скриншоты

Релиз от:
[Профиль] [ЛС]

Создавать темы 16-Окт-2016 12:47 (спустя 1 час 13 минут)

Топик был перенесен из форума Фильмы для iOS,iPad, iPhone в форум Видео для КПК и Смартфонов
Russian Mafia
 
Показать сообщения:    

Текущее время: Сегодня 16:23

Часовой пояс: GMT



Вы не можете начинать темы
Вы не можете отвечать на сообщения
Вы не можете редактировать свои сообщения
Вы не можете удалять свои сообщения
Вы не можете голосовать в опросах
Вы не можете прикреплять файлы к сообщениям
Вы не можете скачивать файлы