Всё могу / Absolutely Anything (Терри Джонс / Terry Jones) [2015, Великобритания, США, фантастика, комедия, BDRip] DVO

 
Автор Сообщение

TorrentFilm ®

Пол:

Стаж: 2 года

Сообщений: 7741



Награды: Нет

Торрент-статистика

Создавать темы 08-Дек-2015 00:11

[Цитировать]

Всё могу / Absolutely Anything
Страна: Великобритания, США
Жанр: фантастика, комедия
Год выпуска: 2015
Продолжительность: 01:25:30-Перевод: Любительский (двухголосный закадровый)
Cубтитры: нет
Оригинальная аудиодорожка: нет-Режиссер: Терри Джонс / Terry Jones-В ролях: Кейт Бекинсейл, Робин Уильямс, Саймон Пегг, Терри Гиллиам, Джон Клиз, Роб Риггл, Джоанна Ламли, Эдди Иззард, Эрик Айдл, Эмма Пирсон, Терри Джонс, Майкл Пэйлин, Райан Олива, Роберт Бафёрст, Санджив Бхаскар, Алекса Дейвис, Марк Престон, Джуди Лу, Мира Сайал, Брайан Кокс-Описание: Злобные инопланетяне, собираясь уничтожить Землю, дают ей последний шанс — наделяют учителя-неудачника Нила Кларка способностью исполнять любые желания. Он бы мог положить конец войнам или воскресить величайшие умы всех времен. Вот только как заманчиво: стать президентом США, соблазнить неприступную красотку или заставить заговорить собственного пса. Спасет ли Нил Кларк землю или устроит полный беспредел?
Сэмпл: http://sendfile.su/1180314


Качество видео: BDRip
Формат видео: AVI
Видео: 624x264 (2.36:1), 23.976 fps, XviD build 50 ~979 kbps avg, 0.25 bit/pixel
Аудио: 48 kHz, AC3 Dolby Digital, 2/0 (L,R) ch, ~192 kbps

MediaInfo

Формат : AVI
Формат/Информация : Audio Video Interleave
Размер файла : 722 Мбайт
Продолжительность : 1 ч. 25 м.
Общий поток : 1181 Кбит/сек
Программа кодирования : VirtualDubMod 1.5.10.2 (build 2540/release)
Библиотека кодирования : VirtualDubMod build 2540/release
Видео
Идентификатор : 0
Формат : MPEG-4 Visual
Профиль формата : Advanced Simple@L5
Параметр BVOP формата : 1
Параметр QPel формата : Нет
Параметр GMC формата : Без точки перехода
Параметр матрицы формата : Default (MPEG)
Идентификатор кодека : XVID
Идентификатор кодека/Подсказка : XviD
Продолжительность : 1 ч. 25 м.
Битрейт : 980 Кбит/сек
Ширина : 624 пикселя
Высота : 264 пикселя
Соотношение сторон : 2,35:1
Частота кадров : 23,976 (23976/1000) кадра/сек
Цветовое пространство : YUV
Субдискретизация насыщенности : 4:2:0
Битовая глубина : 8 бит
Тип развёртки : Прогрессивная
Метод сжатия : С потерями
Бит/(Пиксели*Кадры) : 0.248
Размер потока : 599 Мбайт (83%)
Библиотека кодирования : XviD 1.2.1 (UTC 2008-12-04)
Аудио
Идентификатор : 1
Формат : AC-3
Формат/Информация : Audio Coding 3
Расширение режима : CM (complete main)
Параметр Endianness формата : Big
Идентификатор кодека : 2000
Продолжительность : 1 ч. 25 м.
Вид битрейта : Постоянный
Битрейт : 192 Кбит/сек
Каналы : 2 канала
Расположение каналов : Front: L R
Частота : 48,0 КГц
Частота кадров : 31,250 кадров/сек (1536 spf)
Метод сжатия : С потерями
Размер потока : 117 Мбайт (16%)
Выравнивание : Разделение по промежуткам
Продолжительность промежутка : 42 мс. (1,00 видеокадр)
Время предзагрузки промежутка : 500 мс.

Скриншот c названием фильма

Скриншоты





Дополнительная информация

тема была пере залита, из-за не соответствия первой установленным требованиям и переработана под размер 700Mb
[Профиль] [ЛС]
Кто просматривает тему:

Показать сообщения:    

Текущее время: Сегодня 20:26

Часовой пояс: GMT



Вы не можете начинать темы
Вы не можете отвечать на сообщения
Вы не можете редактировать свои сообщения
Вы не можете удалять свои сообщения
Вы не можете голосовать в опросах
Вы не можете прикреплять файлы к сообщениям
Вы не можете скачивать файлы