Всё могу / Absolutely Anything (2015) BDRip 1080p | Звук с TS

 
Автор Сообщение

BOSS ®

Пол:

Стаж: 2 года 2 месяца

Сообщений: 3751

Откуда: ODESSA



Награды: 20 (Подробнее)

Mega Releaser 2 (Количество: 1) Top Keeper 3 (Количество: 1) Mega Seeder 5 (Количество: 1)
Торрент-статистика

Создавать темы 03-Дек-2015 05:55

[Цитировать]

Информация о фильме
Название: Всё могу
Оригинальное название: Absolutely Anything
Год выхода: 2015
Жанр: Комедия, фантастика
Режиссер: Терри Джонс
В ролях: Кейт Бекинсейл, Робин Уильямс, Саймон Пегг, Терри Гиллиам, Джоанна Ламли, Джон Клиз, Роб Риггл, Эдди Иззард, Эмма Пирсон, Эрик Айдл
О фильме:
Главный герой фильма Нил Кларк – заурядный неудачник. Он школьный учитель, который ничего не добился в жизни. Он уже не молод, но семьи до сих пор нет, хотя он не прочь завязать отношения с молоденькой соседкой. Единственный друг Нила – пес Деннис. Однажды инопланетяне решили уничтожить Землю. Но простое уничтожение планеты показалось для них скучным занятием. Хитрые инопланетяне захотели развлечься напоследок и наделили первого попавшегося человека уникальной способностью. Этим счастливчиком оказался Нил. Теперь он умеет исполнять все свои желания, стоит только захотеть. Школьный учитель удовлетворяет все свои потребности и пробует то, о чем мог только мечтать. Даже своего любимого пса он наделил человеческой речью. Вещи сами приходят к Нилу, а ложка сама подносит еду ко рту. Сам герой практически ничего не делает. Уникальный дар Кларк использует только для удовлетворения собственных нужд, а тем временем в мире происходят войны и конфликты. Инопланетяне, наблюдающие за действиями Нила, решают все-таки уничтожить планету, но может неудачнику удастся что-то изменить? Если он пересмотрит свое отношение к жизни, то сможет спасти все человечество.

Страна: США, Великобритания
Студия: Bill and Ben Productions, GFM films
Продолжительность: 01:25:30
Перевод: Дубляж | Звук с TS
Файл
Кодек: h.264
Качество: BDRip 1080p
Видео: 1920x808 пикселей, 10200 кбит/сек, 23.976 кадра(ов)/сек
Звук:
Audio #1: Русский, AC-3, 2.0 канала(ов), 192 кбит/сек, 48.0 кГц
Audio #2: Английский, AC-3, 5.1 канала(ов), 384 кбит/сек, 48.0 кГц
Audio #3: Английский, DTS, 5.1 канала(ов), 768 кбит/сек, 48.0 кГц
Субтитры: Английские, VobSub
Семпл

Скриншоты

Media Info

Video
ID : 1
Format : AVC
Format/Info : Advanced Video Codec
Format profile : High@L4.1
Format settings, CABAC : Yes
Format settings, ReFrames : 5 frames
Codec ID : V_MPEG4/ISO/AVC
Duration : 1h 25mn
Bit rate : 10.2 Mbps
Width : 1 920 pixels
Height : 808 pixels
Display aspect ratio : 2.40:1
Frame rate mode : Constant
Frame rate : 23.976 fps
Color space : YUV
Chroma subsampling : 4:2:0
Bit depth : 8 bits
Scan type : Progressive
Bits/(Pixel*Frame) : 0.275
Language : English
Default : Yes
Forced : No
Audio #1
ID : 2
Format : AC-3
Format/Info : Audio Coding 3
Format settings, Endianness : Big
Codec ID : A_AC3
Duration : 1h 25mn
Bit rate mode : Constant
Bit rate : 192 Kbps
Channel(s) : 2 channels
Channel positions : Front: L R
Sampling rate : 48.0 KHz
Frame rate : 187.500 fps (256 spf)
Compression mode : Lossy
Stream size : 117 MiB (2%)
Title : Russian 2.0 (TS)
Language : Russian
Default : Yes
Forced : No
Audio #2
ID : 3
Format : AC-3
Format/Info : Audio Coding 3
Mode extension : CM (complete main)
Format settings, Endianness : Big
Codec ID : A_AC3
Duration : 1h 25mn
Bit rate mode : Constant
Bit rate : 384 Kbps
Channel(s) : 6 channels
Channel positions : Front: L C R, Side: L R, LFE
Sampling rate : 48.0 KHz
Frame rate : 31.250 fps (1536 spf)
Compression mode : Lossy
Stream size : 235 MiB (3%)
Title : English 5.1
Language : English
Default : No
Forced : No
Audio #3
ID : 4
Format : DTS
Format/Info : Digital Theater Systems
Mode : 16
Format settings, Endianness : Big
Codec ID : A_DTS
Duration : 1h 25mn
Bit rate mode : Constant
Bit rate : 768 Kbps
Channel(s) : 6 channels
Channel positions : Front: L C R, Side: L R, LFE
Sampling rate : 48.0 KHz
Frame rate : 93.750 fps (512 spf)
Bit depth : 24 bits
Compression mode : Lossy
Stream size : 470 MiB (7%)
Title : English DTS
Language : English
Default : No
Forced : No
Text
ID : 5
Format : VobSub
Muxing mode : zlib
Codec ID : S_VOBSUB
Codec ID/Info : Picture based subtitle format used on DVDs
Duration : 1h 22mn
Bit rate : 7 694 bps
Count of elements : 1362
Stream size : 4.55 MiB (0%)
Title : English Sub
Language : English
Default : No
Forced : No
[Профиль] [ЛС]
Кто просматривает тему:

Показать сообщения:    

Текущее время: Сегодня 12:11

Часовой пояс: GMT



Вы не можете начинать темы
Вы не можете отвечать на сообщения
Вы не можете редактировать свои сообщения
Вы не можете удалять свои сообщения
Вы не можете голосовать в опросах
Вы не можете прикреплять файлы к сообщениям
Вы не можете скачивать файлы