Всё могу / Absolutely Anything (2015) DVDRip | L2

 
Автор Сообщение

BOSS ®

Пол:

Стаж: 2 года 1 месяц

Сообщений: 3718

Откуда: ODESSA



Награды: 20 (Подробнее)

Top Releaser 3 (Количество: 1) Top Releaser 4 (Количество: 1) Top Keeper 3 (Количество: 1)
Торрент-статистика

Создавать темы 18-Ноя-2015 12:17

[Цитировать]

Информация о фильме
Название: Всё могу / Всё как ты захочешь
Оригинальное название: Absolutely Anything
Год выхода: 2015
Жанр: фантастика, комедия
Режиссер: Терри Джонс
Авторы сценария: Гэвин Скотт, Терри Джонс
Продюсеры: Билл Джонс, Бенджамин Тимлетт, Крис Чессер
В ролях: Кейт Бекинсейл, Робин Уильямс, Саймон Пегг, Терри Гиллиам, Джоанна Ламли, Джон Клиз, Роб Риггл
О фильме: Злобные инопланетяне, собираясь уничтожить Землю, дают ей последний шанс — наделяют учителя-неудачника Ника Кларка способностью исполнять любые желания. Он бы мог положить конец войнам или воскресить величайшие умы всех времен. Вот только как заманчиво: стать президентом США, соблазнить неприступную красотку или заставить заговорить собственного пса. Спасет ли Ник Кларк землю или устроит полный беспредел..?

Страна: Великобритания США
Студия: Bill and Ben Productions, GFM films
Продолжительность: 01:21:47
Перевод: Любительский (двухголосый) | Parovoz Production
Файл
Кодек: XviD
Качество: DVDRip
Видео: 720x400 (16:9), 25.000 fps, XviD ~1 016 kbps avg, 0.141 bit/pixel
Аудио: 48.0 kHz, AC3 Dolby Digital, 2/0 (L,R) ch, ~128.00 kbps avg

Скриншоты

MediaInfo

General
Complete name : Vsy0.m0gu.2015.L2.DVDRip.700MB.avi
Format : AVI
Format/Info : Audio Video Interleave
File size : 702 MiB
Duration : 1h 21mn
Overall bit rate : 1 200 Kbps
Movie name : Vsy0.m0gu.2015.L2.DVDRip.700MB.ELEKTRI4KA
Writing application : VirtualDubMod 1.5.10.3 | (build 2550/release)
Copyright : UNIONGANG&RUSTORRENTS
Video
ID : 0
Format : MPEG-4 Visual
Format profile : Advanced Simple@L5
Format settings, BVOP : 2
Format settings, QPel : No
Format settings, GMC : No warppoints
Format settings, Matrix : Default (MPEG)
Codec ID : XVID
Codec ID/Hint : XviD
Duration : 1h 21mn
Bit rate : 1 016 Kbps
Width : 720 pixels
Height : 400 pixels
Display aspect ratio : 16:9
Frame rate : 25.000 fps
Color space : YUV
Chroma subsampling : 4:2:0
Bit depth : 8 bits
Scan type : Progressive
Compression mode : Lossy
Bits/(Pixel*Frame) : 0.141
Stream size : 594 MiB (85%)
Writing library : XviD 1.2.1 (UTC 2008-12-04)
Audio
ID : 1
Format : AC-3
Format/Info : Audio Coding 3
Mode extension : CM (complete main)
Format settings, Endianness : Big
Codec ID : 2000
Duration : 1h 21mn
Bit rate mode : Constant
Bit rate : 128 Kbps
Channel(s) : 2 channels
Channel positions : Front: L R
Sampling rate : 48.0 KHz
Bit depth : 16 bits
Compression mode : Lossy
Stream size : 74.9 MiB (11%)
Alignment : Split accross interleaves
[Профиль] [ЛС]
Кто просматривает тему:

Показать сообщения:    

Текущее время: Сегодня 08:28

Часовой пояс: GMT



Вы не можете начинать темы
Вы не можете отвечать на сообщения
Вы не можете редактировать свои сообщения
Вы не можете удалять свои сообщения
Вы не можете голосовать в опросах
Вы не можете прикреплять файлы к сообщениям
Вы не можете скачивать файлы