Всё или ничего / The Longest Yard (2005) WEB-DL 1080p

 
Автор Сообщение

Russian Mafia ®

Пол:

Стаж: 1 год 8 месяцев

Сообщений: 4253



Награды: 10 (Подробнее)

Mega Seeder 4 (Количество: 1) За внесенный вклад в развитие сайта (Количество: 1) Top Releaser 3 (Количество: 1)
Торрент-статистика

Создавать темы 11-Окт-2015 07:17

[Цитировать]

Информация о фильме
Название: Всё или ничего
Оригинальное название: The Longest Yard
Год выхода: 2005
Жанр: комедия, криминал, спорт
Режиссер: Питер Сигал
В ролях: Адам Сэндлер, Крис Рок, Берт Рейнолдс, Джеймс Кромуэлл, Уильям Фихтнер, Нелли, Майкл Ирвин, Боб Сапп, Николас Туртурро
О фильме:
Профессиональный футболист, бывший игрок Национальной Футбольной Лиги Пол Кру попадает в тюрьму за вождение автомобиля в нетрезвом состоянии. Начальник тюрьмы Хэйзен, задумавший организовать футбольный матч между охранниками и заключенными, предлагает Полу собрать свою команду. При этом он обещает сократить футболисту срок, если победу одержат охранники. Согласится ли Кру поступиться своими принципами ради скорейшего освобождения или же достойно поборется за победу?
Страна: США
Студия: Paramount Pictures, Columbia Pictures Corporation, MTV Films
Продолжительность: 01:53:34
Перевод: Профессиональный (дублированный) iTunes + Профессиональный (дублированный) + Профессиональный (двухголосый, закадровый) Tycoon-Studio + Профессиональный (многоголосый, закадровый) Так треба продакшн
Файл
Формат: Matroska
Видео: 1916x808 at 23.976 fps, MPEG-4 AVC ~4300 kbps avg
Аудио#1: Russian: 48 kHz, AC3, 3/2 (L,C,R,l,r) + LFE ch, ~384.00 kbps avg |Дубляж, iTunes|
Аудио#2: Russian: 48 kHz, AC3, 3/2 (L,C,R,l,r) + LFE ch, ~448.00 kbps avg |Дубляж|
Аудио#3: Russian: 48 kHz, AC3, 3/2 (L,C,R,l,r) + LFE ch, ~448.00 kbps avg |Двухголосый закадровый, Tycoon-Studio|
Аудио#4: Ukrainian: 48 kHz, AC3, 3/2 (L,C,R,l,r) + LFE ch, ~448.00 kbps avg |Многоголосый закадровый, Так треба продакшн|
Аудио#5: English: 48 kHz, AC3, 3/2 (L,C,R,l,r) + LFE ch, ~384.00 kbps avg
Субтитры: Russian, English

MI

Общее
Уникальный идентификатор : 217844728917597433883139534510579007676 (0xA3E35E60D33281C09E5A9F3F508440BC)
Полное имя : TH_LNGST_ YRD_2005_1080P_WEB-DL -BLUEBIRD.mkv
Формат : Matroska
Версия формата : Version 4 / Version 2
Размер файла : 5,23 Гбайт
Продолжительность : 1 ч. 53 м.
Общий поток : 6591 Кбит/сек
Название фильма : THE_LONGEST_ YARD_2005_1080P_WEB-DL -BLUEBIRD
Дата кодирования : UTC 2015-10-09 23:47:49
Программа кодирования : mkvmerge v8.2.0 ('World of Adventure') 32bit
Библиотека кодирования : libebml v1.3.1 + libmatroska v1.4.2
DURATION : 01:53:30.577000000
NUMBER_OF_FRAMES : 204113
NUMBER_OF_BYTES : 313517568
_STATISTICS_WRITING_APP : mkvmerge v8.2.0 ('World of Adventure') 32bit
_STATISTICS_WRITING_DATE_UTC : 2015-10-09 23:47:49
_STATISTICS_TAGS : BPS DURATION NUMBER_OF_FRAMES NUMBER_OF_BYTES
Видео
Идентификатор : 1
Формат : AVC
Формат/Информация : Advanced Video Codec
Профиль формата : High@L4
Параметр CABAC формата : Да
Параметр ReFrames формата : 5 кадров
Идентификатор кодека : V_MPEG4/ISO/AVC
Продолжительность : 1 ч. 53 м.
Битрейт : 4348 Кбит/сек
Ширина : 1916 пикселей
Высота : 808 пикселей
Соотношение сторон : 2,40:1
Режим частоты кадров : Постоянный
Частота кадров : 23,976 кадра/сек
Цветовое пространство : YUV
Субдискретизация насыщенности : 4:2:0
Битовая глубина : 8 бит
Тип развёртки : Прогрессивная
Бит/(Пиксели*Кадры) : 0.117
Размер потока : 3,45 Гбайт (66%)
Заголовок : iTUNES_WEB-DL -BLUEBIRD
Язык : English
Default : Да
Forced : Нет
Цветовой диапазон : Limited
Основные цвета : BT.709
Характеристики трансфера : BT.709
Коэффициенты матрицы : BT.709
Аудио #1
Идентификатор : 2
Формат : AC-3
Формат/Информация : Audio Coding 3
Расширение режима : CM (complete main)
Параметр Endianness формата : Big
Идентификатор кодека : A_AC3
Продолжительность : 1 ч. 53 м.
Вид битрейта : Постоянный
Битрейт : 384 Кбит/сек
Каналы : 6 каналов
Расположение каналов : Front: L C R, Side: L R, LFE
Частота : 48,0 КГц
Метод сжатия : С потерями
Задержка видео : 42 мс.
Размер потока : 312 Мбайт (6%)
Заголовок : iTUNES - Дублированный
Язык : Russian
Default : Да
Forced : Нет
Аудио #2
Идентификатор : 3
Формат : AC-3
Формат/Информация : Audio Coding 3
Расширение режима : CM (complete main)
Параметр Endianness формата : Big
Идентификатор кодека : A_AC3
Продолжительность : 1 ч. 53 м.
Вид битрейта : Постоянный
Битрейт : 448 Кбит/сек
Каналы : 6 каналов
Расположение каналов : Front: L C R, Side: L R, LFE
Частота : 48,0 КГц
Метод сжатия : С потерями
Задержка видео : 3 с. 0 мс.
Размер потока : 364 Мбайт (7%)
Заголовок : Дублированный
Язык : Russian
Default : Нет
Forced : Нет
Аудио #3
Идентификатор : 4
Формат : AC-3
Формат/Информация : Audio Coding 3
Расширение режима : CM (complete main)
Параметр Endianness формата : Big
Идентификатор кодека : A_AC3
Продолжительность : 1 ч. 53 м.
Вид битрейта : Постоянный
Битрейт : 448 Кбит/сек
Каналы : 6 каналов
Расположение каналов : Front: L C R, Side: L R, LFE
Частота : 48,0 КГц
Метод сжатия : С потерями
Задержка видео : 3 с. 0 мс.
Размер потока : 364 Мбайт (7%)
Заголовок : DVO, Tycoon-Studio
Язык : Russian
Default : Нет
Forced : Нет
Аудио #4
Идентификатор : 5
Формат : AC-3
Формат/Информация : Audio Coding 3
Расширение режима : CM (complete main)
Параметр Endianness формата : Big
Идентификатор кодека : A_AC3
Продолжительность : 1 ч. 53 м.
Вид битрейта : Постоянный
Битрейт : 448 Кбит/сек
Каналы : 6 каналов
Расположение каналов : Front: L C R, Side: L R, LFE
Частота : 48,0 КГц
Метод сжатия : С потерями
Задержка видео : 3 с. 0 мс.
Размер потока : 364 Мбайт (7%)
Заголовок : MVO, "Так треба продакшн"
Язык : Ukrainian
Default : Нет
Forced : Нет
Аудио #5
Идентификатор : 6
Формат : AC-3
Формат/Информация : Audio Coding 3
Расширение режима : CM (complete main)
Параметр Endianness формата : Big
Идентификатор кодека : A_AC3
Продолжительность : 1 ч. 53 м.
Вид битрейта : Постоянный
Битрейт : 384 Кбит/сек
Каналы : 6 каналов
Расположение каналов : Front: L C R, Side: L R, LFE
Частота : 48,0 КГц
Метод сжатия : С потерями
Задержка видео : 3 с. 0 мс.
Размер потока : 312 Мбайт (6%)
Язык : English
Default : Нет
Forced : Нет
Текст #1
Идентификатор : 7
Формат : UTF-8
Идентификатор кодека : S_TEXT/UTF8
Идентификатор кодека/Информация : UTF-8 Plain Text
Язык : Russian
Default : Да
Forced : Нет
Текст #2
Идентификатор : 8
Формат : UTF-8
Идентификатор кодека : S_TEXT/UTF8
Идентификатор кодека/Информация : UTF-8 Plain Text
Язык : English
Default : Нет
Forced : Нет
Меню
00:00:00.000 : en:1
00:04:43.000 : en:2
00:14:51.000 : en:3
00:21:30.000 : en:4
00:29:57.000 : en:5
00:35:02.000 : en:6
00:41:51.000 : en:7
00:49:19.000 : en:8
00:53:49.000 : en:9
01:00:48.000 : en:10
01:08:20.000 : en:11
01:19:21.000 : en:12
01:24:29.000 : en:13
01:31:10.000 : en:14
01:37:56.000 : en:15
01:44:08.000 : en:16

Скриншоты


[Профиль] [ЛС]
Кто просматривает тему:

Показать сообщения:    

Текущее время: Сегодня 21:00

Часовой пояс: GMT



Вы не можете начинать темы
Вы не можете отвечать на сообщения
Вы не можете редактировать свои сообщения
Вы не можете удалять свои сообщения
Вы не можете голосовать в опросах
Вы не можете прикреплять файлы к сообщениям
Вы не можете скачивать файлы