Всё дело в шляпе (Лето в Муми-доле, В Муми-дол приходит осень) (Анатолий Аляшев) [1980-1983, Рисованный мультфильм, SATRip]

 
Автор Сообщение

TorrentFilm ®

Пол:

Стаж: 2 года

Сообщений: 7741



Награды: Нет

Торрент-статистика

Создавать темы 06-Апр-2015 00:03

[Цитировать]

Всё дело в шляпе (Лето в Муми-доле, В Муми-дол приходит осень)
Страна: СССР
Жанр: Рисованный мультфильм
Продолжительность:
1. Всё дело в шляпе (1980 г.)00:15:21
2. Лето в Муми-доле (1981 г.) 00:19:58
3. В Муми-дол приходит осень (1983 г.)00:16:06
Год выпуска: 1980-1983
Русские субтитры: нет
Режиссёр: Анатолий Аляшев
Роли озвучивали:
1) Н. Литвинов, Галина Иванова, Рогволд Суховерко, Н. Литвинова, И. Потоцкая, Зинаида Нарышкина, Л. Щукин;
2) Н. Литвинов, Рогволд Суховерко, А. Очеретянский, А. Власова, Н. Литвинова, Зинаида Нарышкина, Светлана Харлап, И. Потоцкая;
3) Н. Литвинов, Рогволд Суховерко, И. Потоцкая, В. Ларионов, Н. Литвинова, А. Власова, Светлана Харлап, Г. Кордуб.
Описание: По мотивам сказки финской писательницы Туве Янссон "Шляпа волшебника".
В мультипликационной трилогии рассказывается о весёлых обитателях долины Муми-дол, в чьи лапы попадает странная шляпа. После нескольких смешных и грустных событий становится ясно, что она волшебная и умеет превращать вещи. А потом появляются новые участники и добавляют таинственности...
Доп. информация:
Производство: «Свердловское телевидение».
оператор: Владимир Рожин
композитор: В. Кобекин
звукорежиссёр Б. Берестецкий
редактор В. Хайдаров
монтажёр Л. Туровец
Релиз группы:
Исходник предоставлен SLuMeP
Рип и работа со звуком dvdss
Качество: SATRip
Формат: AVI
Видео: 704x528 (1.33:1), 25 fps, XviD 65 ~1901 kbps avg, 0.20 bit/pixel
Аудио: 48 kHz, AC3 Dolby Digital, 1/0 (C) ch, ~128.00 kbps avg
Субтитры: нет

Подробные технические данные

1серия
Format : AVIFormat/Info : Audio Video InterleaveFile size : 224 MiBDuration : 15mn 21sOverall bit rate : 2 039 KbpsWriting application : VirtualDubModRus 1.5.10.2 (build 2542/release)Copyright : Rytracker.orgComment : RG Multfilms by dvdss
VideoID : 0Format : MPEG-4 VisualFormat profile : Advanced Simple@L5Format settings, BVOP : 2Format settings, QPel : NoFormat settings, GMC : No warppointsFormat settings, Matrix : CustomCodec ID : XVIDCodec ID/Hint : XviDDuration : 15mn 21sBit rate : 1 901 KbpsWidth : 704 pixelsHeight : 528 pixelsDisplay aspect ratio : 5:4Original display aspect ratio : 4:3Frame rate : 25.000 fpsColor space : YUVChroma subsampling : 4:2:0Bit depth : 8 bitsScan type : ProgressiveCompression mode : LossyBits/(Pixel*Frame) : 0.205Stream size : 209 MiB (93%)Writing library : XviD 65
AudioID : 1Format : AC-3Format/Info : Audio Coding 3Mode extension : CM (complete main)Format settings, Endianness : BigCodec ID : 2000Duration : 15mn 21sBit rate mode : ConstantBit rate : 128 KbpsChannel(s) : 1 channelChannel positions : Front: CSampling rate : 48.0 KHzBit depth : 16 bitsCompression mode : LossyStream size : 14.1 MiB (6%)Alignment : Split accross interleavesInterleave, duration : 40 ms (1.00 video frame)Interleave, preload duration : 500 ms
2 серия
Format : AVIFormat/Info : Audio Video InterleaveFile size : 291 MiBDuration : 19mn 58sOverall bit rate : 2 038 KbpsWriting application : VirtualDubModRus 1.5.10.2 (build 2542/release)Copyright : Rutracker.orgComment : RG Multfilms by dvdss
VideoID : 0Format : MPEG-4 VisualFormat profile : Advanced Simple@L5Format settings, BVOP : 2Format settings, QPel : NoFormat settings, GMC : No warppointsFormat settings, Matrix : CustomCodec ID : XVIDCodec ID/Hint : XviDDuration : 19mn 58sBit rate : 1 901 KbpsWidth : 704 pixelsHeight : 528 pixelsDisplay aspect ratio : 5:4Original display aspect ratio : 4:3Frame rate : 25.000 fpsColor space : YUVChroma subsampling : 4:2:0Bit depth : 8 bitsScan type : ProgressiveCompression mode : LossyBits/(Pixel*Frame) : 0.205Stream size : 272 MiB (93%)Writing library : XviD 65
AudioID : 1Format : AC-3Format/Info : Audio Coding 3Mode extension : CM (complete main)Format settings, Endianness : BigCodec ID : 2000Duration : 19mn 58sBit rate mode : ConstantBit rate : 128 KbpsChannel(s) : 1 channelChannel positions : Front: CSampling rate : 48.0 KHzBit depth : 16 bitsCompression mode : LossyStream size : 18.3 MiB (6%)Alignment : Split accross interleavesInterleave, duration : 40 ms (1.00 video frame)Interleave, preload duration : 500 ms
3 серия
Format : AVIFormat/Info : Audio Video InterleaveFile size : 235 MiBDuration : 16mn 6sOverall bit rate : 2 038 KbpsWriting application : VirtualDubModRus 1.5.10.2 (build 2542/release)Copyright : Rutracker.orgComment : RG Multfilms by dvdss
VideoID : 0Format : MPEG-4 VisualFormat profile : Advanced Simple@L5Format settings, BVOP : 1Format settings, QPel : NoFormat settings, GMC : No warppointsFormat settings, Matrix : CustomCodec ID : XVIDCodec ID/Hint : XviDDuration : 16mn 6sBit rate : 1 900 KbpsWidth : 704 pixelsHeight : 528 pixelsDisplay aspect ratio : 5:4Original display aspect ratio : 4:3Frame rate : 25.000 fpsColor space : YUVChroma subsampling : 4:2:0Bit depth : 8 bitsScan type : ProgressiveCompression mode : LossyBits/(Pixel*Frame) : 0.204Stream size : 219 MiB (93%)Writing library : XviD 65
AudioID : 1Format : AC-3Format/Info : Audio Coding 3Mode extension : CM (complete main)Format settings, Endianness : BigCodec ID : 2000Duration : 16mn 6sBit rate mode : ConstantBit rate : 128 KbpsChannel(s) : 1 channelChannel positions : Front: CSampling rate : 48.0 KHzBit depth : 16 bitsCompression mode : LossyStream size : 14.8 MiB (6%)Alignment : Split accross interleavesInterleave, duration : 40 ms (1.00 video frame)Interleave, preload duration : 500 ms

сравнение с DVDRipсравнение серия 1

Сравнение с http://torrentfilm.net/forum/viewtopic.php?t=4227407
Тут -- http://screenshotcomparison.com/comparison/119116/picture:2

Скриншотысерия 1

серия 2

серия 3

[Профиль] [ЛС]
Кто просматривает тему:

Показать сообщения:    

Текущее время: Сегодня 00:32

Часовой пояс: GMT



Вы не можете начинать темы
Вы не можете отвечать на сообщения
Вы не можете редактировать свои сообщения
Вы не можете удалять свои сообщения
Вы не можете голосовать в опросах
Вы не можете прикреплять файлы к сообщениям
Вы не можете скачивать файлы