Всё включено: Каникулы в Греции / Sune i Grekland - All Inclusive (2012) HDRip

 
Автор Сообщение

sergej644 ®

Пол:

Стаж: 4 года 11 месяцев

Сообщений: 6040

Откуда: Soviet Union



Награды: Нет

Торрент-статистика

Создавать темы 12-Окт-2014 22:41

[Цитировать]

-Всё включено: Каникулы в Греции / Sune i Grekland - All Inclusive (2012) HDRip- Год выпуска: 2012
Производство: Швеция
Жанр: Комедия, семейный, экранизация
Режиссер: Ханнес Холм
Актеры: Уильям Ригстрём, Морган Аллинг, Аня Лундквист, Ханна Эльффорс Эльфстрём, Юлиус Хименес Хугосон, Юлия Дуфвениус, Эрик Йоханссон, Фелине Андерссон, Мадлен Барвен Тролльвик, Анна-Мария Даль
Описание фильма:
Экранизация книги Андерса Якобссона. Патологически жадный отец семейства Андерссонов выигрывает билеты в Грецию и отправляется на отдых со всей семьёй. Забавные приключения, с которыми придётся столкнуться семейству во время отдыха, впечатляют: от пьяных гоблинов на вечеринке до приводнения самолёта прямо на пляж Греции.
Перевод: Профессиональный многоголосый

Продолжительность: 01:34:47
Качество видео: HDRip
Видеокодек: XviD
Битрейт видео: ~2189 Кбит/с
Размер кадра: 720x304
Аудио:
1. AC3, 6 ch, 448 Кбит/с - русский
2. AC3, 6 ch, 448 Кбит/с - английский

MediaInfo:

Общее
Полное имя : C:\NNM\Каникулы в Греции\Kanikyly v grecii 2012 HDRip.avi
Формат : AVI
Формат/Информация : Audio Video Interleave
Профиль формата : OpenDML
Размер файла : 2,05 Гбайт
Продолжительность : 1 ч. 34 м.
Общий поток : 3104 Кбит/сек
Программа кодирования : VirtualDubMod 1.5.10.3 (build 2550/release)
Библиотека кодирования : VirtualDubMod build 2550/release
Видео
Идентификатор : 0
Формат : MPEG-4 Visual
Профиль формата : Advanced Simple@L5
Параметр BVOP формата : 1
Параметр QPel формата : Нет
Параметр GMC формата : Без точки перехода
Параметр матрицы формата : Default (MPEG)
Идентификатор кодека : XVID
Идентификатор кодека/Подсказка : XviD
Продолжительность : 1 ч. 34 м.
Битрейт : 2189 Кбит/сек
Ширина : 720 пикселей
Высота : 304 пикселя
Соотношение сторон : 2,35:1
Частота кадров : 24,000 кадра/сек
Цветовое пространство : YUV
Субдискретизация насыщенности : 4:2:0
Битовая глубина : 8 бит
Тип развёртки : Прогрессивная
Метод сжатия : С потерями
Бит/(Пиксели*Кадры) : 0.417
Размер потока : 1,45 Гбайт (71%)
Библиотека кодирования : XviD 1.2.1 (UTC 2008-12-04)
Аудио #1
Идентификатор : 1
Формат : AC-3
Формат/Информация : Audio Coding 3
Расширение режима : CM (complete main)
Идентификатор кодека : 2000
Продолжительность : 1 ч. 34 м.
Вид битрейта : Постоянный
Битрейт : 448 Кбит/сек
Каналы : 6 каналов
Расположение каналов : Front: L C R, Side: L R, LFE
Частота : 48,0 КГц
Битовая глубина : 16 бит
Метод сжатия : С потерями
Размер потока : 304 Мбайт (14%)
Выравнивание : Разделение по промежуткам
Продолжительность промежутка : 42 мс. (1,00 видеокадр)
Время предзагрузки промежутка : 500 мс.
Аудио #2
Идентификатор : 2
Формат : AC-3
Формат/Информация : Audio Coding 3
Расширение режима : CM (complete main)
Идентификатор кодека : 2000
Продолжительность : 1 ч. 34 м.
Вид битрейта : Постоянный
Битрейт : 448 Кбит/сек
Каналы : 6 каналов
Расположение каналов : Front: L C R, Side: L R, LFE
Частота : 48,0 КГц
Битовая глубина : 16 бит
Метод сжатия : С потерями
Размер потока : 304 Мбайт (14%)
Выравнивание : Разделение по промежуткам
Продолжительность промежутка : 42 мс. (1,00 видеокадр)
Время предзагрузки промежутка : 500 мс.
Скриншоты: Время раздачи: Круглосуточно до 10 скачавших
[Профиль] [ЛС]

Создавать темы 06-Авг-2015 23:20 (спустя 9 месяцев 25 дней)

Топик был перенесен из форума Фильмы до 2014 года в форум Фильмы 2012 года
sergej644
 
Кто просматривает тему:

Показать сообщения:    

Текущее время: Сегодня 08:48

Часовой пояс: GMT



Вы не можете начинать темы
Вы не можете отвечать на сообщения
Вы не можете редактировать свои сообщения
Вы не можете удалять свои сообщения
Вы не можете голосовать в опросах
Вы не можете прикреплять файлы к сообщениям
Вы не можете скачивать файлы