Вся Моя Жизнь - Сплошная Ошибка (Юлия Ермолина) [2015, Документальный, HDTV 720p]

 
Автор Сообщение

TorrentFilm ®

Пол:

Стаж: 2 года

Сообщений: 7741



Награды: Нет

Торрент-статистика

Создавать темы 27-Мар-2015 00:02

[Цитировать]

Вся Моя Жизнь - Сплошная Ошибка. К 100-Летию Георгия Жженова- Год выпуска: 2015
Страна: Россия
Канал: Первый Канала HD | Медиаконструктор
Жанр: Документальный
Продолжительность: 0:51:15
Продюсеры: Людмила Снигирева, Олег Вольнов
Автор сценария: Вадим Нечаев
Режиссер: Юлия Ермолина-Описание: "Я не кланялся судьбе" - это главный принцип жизни Георгия Жженова, которому он оставался верен до последних дней. Этот человек не любил говорить о прошлом, предпочитая жить настоящим. А его прошлое - это настоящее испытание, выдержать которое смог бы далеко не каждый. 17 лет лагерей, в которых Жженов оказался по ложному обвинению. Лучшие годы, вычеркнутые из жизни. Чудовищная несправедливость. Все это пришлось испытать актеру. Но в сорок лет этот удивительный человек начинает жизнь заново и добивается всего: признания, успеха и популярности.-Автор рипа: lrn
Автор записи: mydimka
Сэмпл: sendfile-Тип релиза: HDTV 720p
Контейнер: MKV
Видео: 1280x720 (16:9), 25,000 fps, H264, ~4000 kbps avg, ~0.174 bit/pixel
Аудио: 48 kHz, AC3 Dolby Digital, 3/2 (L,C,R,l,r) + LFE ch, ~384.00 kbps avg-

MediaInfo

GeneralUnique ID : 189621373669320027124413376417058309676 (0x8EA7BF87B666B16B8576A3219898C62C)Complete name : E:\uTorrent.Temp\Temp\Vsya.Moya.Jhizn.Sploshnaja.Oshibka.2015.HDTV.720p.x264-lrn.mkvFormat : MatroskaFormat version : Version 4 / Version 2File size : 1.57 GiBDuration : 51mn 15sOverall bit rate : 4 386 KbpsMovie name : Georgiy.Jjenov.Vsya.Moya.Jhizn.Sploshnaja.Oshibka.2015.HDTV.720p.x264-lrnEncoded date : UTC 2010-02-22 21:41:31Writing application : mkvmerge v5.9.0 ('On The Loose') built on Dec 9 2012 15:37:01Writing library : libebml v1.3.0 + libmatroska v1.4.0DURATION : 00:51:15.480000000NUMBER_OF_FRAMES : 76887NUMBER_OF_BYTES : 1537732706_STATISTICS_WRITING_APP : mkvmerge v7.0.0 ('Where We Going') 32bit built on Jun 9 2014 15:08:34_STATISTICS_WRITING_DATE_UT : 2015-03-22 17:10:15_STATISTICS_TAGS : BPS DURATION NUMBER_OF_FRAMES NUMBER_OF_BYTES
VideoID : 1Format : AVCFormat/Info : Advanced Video CodecFormat profile : High@L4.1Format settings, CABAC : YesFormat settings, ReFrames : 8 framesCodec ID : V_MPEG4/ISO/AVCDuration : 51mn 15sBit rate : 4 000 KbpsWidth : 1 280 pixelsHeight : 720 pixelsDisplay aspect ratio : 16:9Frame rate mode : ConstantFrame rate : 25.000 fpsColor space : YUVChroma subsampling : 4:2:0Bit depth : 8 bitsScan type : ProgressiveBits/(Pixel*Frame) : 0.174Stream size : 1.40 GiB (89%)Writing library : x264 core 142 r2431 ac76440Encoding settings : cabac=1 / ref=8 / deblock=1:-3:-3 / analyse=0x3:0x133 / me=umh / subme=9 / psy=1 / psy_rd=1.00:0.00 / mixed_ref=1 / me_range=32 / chroma_me=1 / trellis=2 / 8x8dct=1 / cqm=0 / deadzone=21,11 / fast_pskip=1 / chroma_qp_offset=-2 / threads=12 / lookahead_threads=2 / sliced_threads=0 / nr=0 / decimate=1 / interlaced=0 / bluray_compat=0 / constrained_intra=0 / bframes=8 / b_pyramid=2 / b_adapt=2 / b_bias=0 / direct=3 / weightb=1 / open_gop=0 / weightp=2 / keyint=250 / keyint_min=25 / scenecut=40 / intra_refresh=0 / rc_lookahead=50 / rc=2pass / mbtree=1 / bitrate=4000 / ratetol=1.0 / qcomp=0.60 / qpmin=0 / qpmax=69 / qpstep=4 / cplxblur=20.0 / qblur=0.5 / vbv_maxrate=62500 / vbv_bufsize=78125 / nal_hrd=none / filler=0 / ip_ratio=1.40 / aq=1:1.00Default : YesForced : No
AudioID : 2Format : AC-3Format/Info : Audio Coding 3Mode extension : CM (complete main)Format settings, Endianness : BigCodec ID : A_AC3Duration : 51mn 15sBit rate mode : ConstantBit rate : 384 KbpsChannel(s) : 6 channelsChannel positions : Front: L C R, Side: L R, LFESampling rate : 48.0 KHzBit depth : 16 bitsCompression mode : LossyStream size : 141 MiB (9%)Language : RussianDefault : YesForced : No

x264 log

raw [info]: 1280x720p 1:1 @ 25/1 fps (cfr)x264 [info]: using SAR=1/1x264 [info]: using cpu capabilities: MMX2 SSE2Fast SSSE3 SSE4.2 AVXx264 [info]: profile High, level 4.1x264 [info]: frame I:612 Avg QP:14.17 size:119311x264 [info]: frame P:18310 Avg QP:17.07 size: 42363x264 [info]: frame B:57965 Avg QP:19.51 size: 11887x264 [info]: consecutive B-frames: 2.3% 3.4% 7.0% 40.6% 15.7% 24.8% 4.7% 1.1% 0.3%x264 [info]: mb I I16..4: 4.4% 80.1% 15.5%x264 [info]: mb P I16..4: 1.8% 11.4% 1.0% P16..4: 44.6% 24.4% 13.4% 0.5% 0.1% skip: 2.8%x264 [info]: mb B I16..4: 0.2% 1.0% 0.1% B16..8: 38.5% 9.8% 2.0% direct:10.4% skip:38.1% L0:41.5% L1:45.6% BI:12.9%x264 [info]: 8x8 transform intra:80.5% inter:63.7%x264 [info]: direct mvs spatial:98.1% temporal:1.9%x264 [info]: coded y,uvDC,uvAC intra: 81.6% 63.7% 40.4% inter: 29.5% 31.8% 3.1%x264 [info]: i16 v,h,dc,p: 42% 13% 7% 38%x264 [info]: i8 v,h,dc,ddl,ddr,vr,hd,vl,hu: 13% 12% 6% 8% 11% 13% 12% 12% 13%x264 [info]: i4 v,h,dc,ddl,ddr,vr,hd,vl,hu: 13% 11% 5% 8% 13% 13% 13% 11% 12%x264 [info]: i8c dc,h,v,p: 53% 20% 15% 12%x264 [info]: Weighted P-Frames: Y:9.9% UV:2.9%x264 [info]: ref P L0: 46.6% 11.3% 18.5% 6.5% 5.8% 4.2% 4.0% 2.6% 0.5% 0.0%x264 [info]: ref B L0: 80.2% 10.4% 4.0% 2.2% 1.7% 1.1% 0.6%x264 [info]: ref B L1: 95.4% 4.6%x264 [info]: kb/s:3999.98encoded 76887 frames, 12.62 fps, 3999.98 kb/s

Скриншоты

-
[Профиль] [ЛС]
Кто просматривает тему:

Показать сообщения:    

Текущее время: Сегодня 04:24

Часовой пояс: GMT



Вы не можете начинать темы
Вы не можете отвечать на сообщения
Вы не можете редактировать свои сообщения
Вы не можете удалять свои сообщения
Вы не можете голосовать в опросах
Вы не можете прикреплять файлы к сообщениям
Вы не можете скачивать файлы