Вся королевская рать / All the King\'s Men (Стивен Зэйллян / Steven Zaillian) [2006, Германия, США, триллер, драма, HDRip] AVO (Карповский)

 
Автор Сообщение

TorrentFilm ®

Пол:

Стаж: 1 год 11 месяцев

Сообщений: 7741



Награды: Нет

Торрент-статистика

Создавать темы 26-Янв-2015 00:00

[Цитировать]

Вся королевская рать / All the King's Men Страна: США, Германия
Жанр: триллер, драма
Год выпуска: 2006
Продолжительность: 02:08:03
Перевод: Авторский (одноголосый закадровый) Антон Карповский спасибо Glowamy
Cубтитры: нет
Режиссер: Стивен Зэйллян / Steven Zaillian
В ролях: Шон Пенн, Джуд Лоу, Энтони Хопкинс, Кейт Уинслет, Марк Руффало, Патриция Кларксон, Джеймс Гандольфини, Джеки Эрл Хейли, Кэти Бэйкер
Описание: Главный герой повествования, журналист Джек Бурден, поддается обаянию политика-популиста Уилли Старка. Старк становится для него настоящим кумиром, однако по мере общения с политиком Бурден осознает, что тот далек от идеала.
Старк, на заре своей карьеры искренне желавший искоренить коррупцию в правительстве, получив полномочия сильных мира сего, сам становится таким же, как и те, с кем он раньше собирался бороться.

Качество видео: HDRip
Формат видео: AVI
Видео кодек: XviD
Аудио кодек: AC3
Видео: 720x384 (1.88:1), 23.976 fps, XviD build 73 ~1443 kbps avg, 0.22 bit/pixel
Аудио: 48 kHz, AC3 Dolby Digital, 2/0 (L,R) ch, ~192 kbps

Доп.инфо

с 00:56:55 по 01:07:30 рассинхрон перевода с дорожкой, перевод идет с запозданием в примерно ~10 секунд, так кто-то криво наложил перевод, кто хочет с этим побороться вот дорога отдельно

MediaInfo

Полное имя : Вся королевская рать 2006.avi
Формат : AVI
Формат/Информация : Audio Video Interleave
Размер файла : 1,47 Гбайт
Продолжительность : 2 ч. 8 м.
Общий поток : 1645 Кбит/сек
Программа кодирования : VirtualDubMod 1.5.10.2 (build 2540/release)
Библиотека кодирования : VirtualDubMod build 2540/release
Видео
Идентификатор : 0
Формат : MPEG-4 Visual
Профиль формата : Advanced Simple@L5
Параметр BVOP формата : 2
Параметр QPel формата : Нет
Параметр GMC формата : Без точки перехода
Параметр матрицы формата : Выборочная
Идентификатор кодека : XVID
Идентификатор кодека/Подсказка : XviD
Продолжительность : 2 ч. 8 м.
Битрейт : 1443 Кбит/сек
Ширина : 720 пикселей
Высота : 384 пикселя
Соотношение сторон : 1,85:1
Частота кадров : 23,976 кадра/сек
Цветовое пространство : YUV
Субдискретизация насыщенности : 4:2:0
Битовая глубина : 8 бит
Тип развёртки : Прогрессивная
Метод сжатия : С потерями
Бит/(Пиксели*Кадры) : 0.218
Размер потока : 1,29 Гбайт (88%)
Библиотека кодирования : XviD 73
Аудио
Идентификатор : 1
Формат : AC-3
Формат/Информация : Audio Coding 3
Расширение режима : CM (complete main)
Параметр Endianness формата : Big
Идентификатор кодека : 2000
Продолжительность : 2 ч. 8 м.
Вид битрейта : Постоянный
Битрейт : 192 Кбит/сек
Каналы : 2 канала
Расположение каналов : Front: L R
Частота : 48,0 КГц
Битовая глубина : 16 бит
Метод сжатия : С потерями
Размер потока : 176 Мбайт (12%)
Выравнивание : Разделение по промежуткам
Продолжительность промежутка : 42 мс. (1,00 видеокадр)
Время предзагрузки промежутка : 500 мс.

Скриншоты

[Профиль] [ЛС]

Создавать темы 06-Авг-2015 22:47 (спустя 6 месяцев 11 дней)

Топик был перенесен из форума Фильмы до 2014 года в форум Фильмы до 2012 года
sergej644
 
Кто просматривает тему:

Показать сообщения:    

Текущее время: Сегодня 04:59

Часовой пояс: GMT



Вы не можете начинать темы
Вы не можете отвечать на сообщения
Вы не можете редактировать свои сообщения
Вы не можете удалять свои сообщения
Вы не можете голосовать в опросах
Вы не можете прикреплять файлы к сообщениям
Вы не можете скачивать файлы