Вся королевская рать / All the King\'s Men (Стивен Зэйллян / Steven Zaillian) [2006, США, политическая драма, BDRip-AVC] VO Дмитрий Есарев

 
Автор Сообщение

painkiller ®

Стаж: 2 года 3 месяца

Сообщений: 582



Награды: Нет

Торрент-статистика

Создавать темы 16-Авг-2014 01:27

[Цитировать]

Вся королевская рать / All the King's Men
Страна: США
Жанр: политическая драма
Год выпуска: 2006
Продолжительность: 02:08:04
Перевод: Одноголосый закадровый - Дмитрий Есарев
Cубтитры: нет
Оригинальная аудиодорожка: нет
Режиссер: Стивен Зэйллян / Steven Zaillian
В ролях: Шон Пенн, Джуд Лоу, Энтони Хопкинс, Кейт Уинслет, Марк Руффало, Патриция Кларксон, Джеймс Гандольфини, Джеки Эрл Хейли, Кэти Бэйкер и др.
Описание:
Главный герой повествования, журналист Джек Бурден, поддается обаянию политика-популиста Уилли Старка. Старк становится для него настоящим кумиром, однако по мере общения с политиком Бурден осознает, что тот далек от идеала
Старк, на заре своей карьеры искренне желавший искоренить коррупцию в правительстве, получив полномочия сильных мира сего, сам становится таким же, как и те, с кем он раньше собирался бороться...
Фильм снят по одноименному роману Роберта Пенна Уоррена
Доп. информация:
Перевод Дмитрия Есарева доступен благодаря будулайроманову, работа со звуком - Переводман.

Файл:
Качество видео: BDRip-AVC, исходник [BDRemux 1080p]
Формат видео: MKV
Видео: 1152x624 (1.85:1), 1984 kbps, 23,976 fps, 0.116 bit/pixel
Аудио: 48 kHz, AC3 Dolby Digital, 3/2 (L,C,R) + L R, LFE ch, ~448.00 kbps avg

MediaInfo

Общее
Уникальный идентификатор : 226037589000320831346369073209810155165 (0xAA0D41912A0EE54FBABD5BCF6560F69D)
Формат : Matroska
Версия формата : Version 2
Размер файла : 2,18 Гбайт
Продолжительность : 2 ч. 8 м.
Общий поток : 2441 Кбит/сек
Дата кодирования : UTC 2014-02-20 17:52:53
Программа кодирования : mkvmerge v2.9.7 ('Tenderness') built on Jul 1 2009 18:43:35
Библиотека кодирования : libebml v0.7.7 + libmatroska v0.8.1
Видео
Идентификатор : 1
Формат : AVC
Формат/Информация : Advanced Video Codec
Профиль формата : High@L4.1
Параметр CABAC формата : Да
Параметр ReFrames формата : 9 кадров
Идентификатор кодека : V_MPEG4/ISO/AVC
Продолжительность : 2 ч. 8 м.
Битрейт : 1993 Кбит/сек
Ширина : 1152 пикселя
Высота : 624 пикселя
Соотношение сторон : 1,85:1
Режим частоты кадров : Постоянный
Частота кадров : 23,976 кадра/сек
Цветовое пространство : YUV
Субдискретизация насыщенности : 4:2:0
Битовая глубина : 8 бит
Тип развёртки : Прогрессивная
Бит/(Пиксели*Кадры) : 0.116
Размер потока : 1,74 Гбайт (80%)
Заголовок : Rip by mihaildns
Библиотека кодирования : x264 core 125 r2208 d9d2288
Настройки программы : cabac=1 / ref=9 / deblock=1:-2:-2 / analyse=0x3:0x111 / me=umh / subme=9 / psy=1 / psy_rd=1.00:0.00 / mixed_ref=1 / me_range=34 / chroma_me=1 / trellis=2 / 8x8dct=1 / cqm=0 / deadzone=21,11 / fast_pskip=0 / chroma_qp_offset=-2 / threads=3 / lookahead_threads=1 / sliced_threads=0 / nr=0 / decimate=1 / interlaced=0 / bluray_compat=0 / constrained_intra=0 / bframes=12 / b_pyramid=2 / b_adapt=2 / b_bias=0 / direct=3 / weightb=1 / open_gop=0 / weightp=2 / keyint=250 / keyint_min=23 / scenecut=40 / intra_refresh=0 / rc_lookahead=50 / rc=2pass / mbtree=1 / bitrate=1993 / ratetol=1.0 / qcomp=0.60 / qpmin=0 / qpmax=69 / qpstep=4 / cplxblur=20.0 / qblur=0.5 / ip_ratio=1.40 / aq=1:1.10
Язык : English
Default : Да
Forced : Нет
Аудио
Идентификатор : 2
Формат : AC-3
Формат/Информация : Audio Coding 3
Расширение режима : CM (complete main)
Параметр Endianness формата : Big
Идентификатор кодека : A_AC3
Продолжительность : 2 ч. 8 м.
Вид битрейта : Постоянный
Битрейт : 448 Кбит/сек
Каналы : 6 каналов
Расположение каналов : Front: L C R, Side: L R, LFE
Частота : 48,0 КГц
Битовая глубина : 16 бит
Метод сжатия : С потерями
Размер потока : 410 Мбайт (18%)
Заголовок : Есарев
Язык : Russian
Default : Да
Forced : Нет

Скриншот c названием фильма

Скриншоты

[Профиль] [ЛС]

Создавать темы 06-Авг-2015 23:09 (спустя 11 месяцев 21 день)

Топик был перенесен из форума Фильмы до 2014 года в форум Фильмы до 2012 года
sergej644
 
Кто просматривает тему:

Показать сообщения:    

Текущее время: Сегодня 12:45

Часовой пояс: GMT



Вы не можете начинать темы
Вы не можете отвечать на сообщения
Вы не можете редактировать свои сообщения
Вы не можете удалять свои сообщения
Вы не можете голосовать в опросах
Вы не можете прикреплять файлы к сообщениям
Вы не можете скачивать файлы