Вся королевская рать / All the King's Men (1949) BDRip 1080p by msltel | 2 x P2

 
Автор Сообщение

sergej644 ®

Пол:

Стаж: 4 года 11 месяцев

Сообщений: 6045

Откуда: Soviet Union



Награды: Нет

Торрент-статистика

Создавать темы 02-Мар-2015 17:25

[Цитировать]

Год выпуска: 1949
Страна: США
Жанр: драма, экранизация
Продолжительность: 01:49:45
Перевод: профессиональный двухголосый
Субтитры: английские
Режиссёр: Роберт Россен
В ролях: Бродерик Кроуфорд, Джон Айрленд (I), Джоэнн Дрю, Джон Дерек, Мерседес МакКэмбридж, Шепперд Страдвик, Энн Сеймур, Кэтерин Уоррен, Рэймонд Гринлиф, Уолтер Бурк, Уилл Райт, Грэндон Родс, Ричард Бартелл, Стэнли Блистоун, Кинг Донован, Пол Форд, Хелен Стэнли, Пэт О’Мэлли
Описание: США. Мейзон-Сити, 1939 год. Преддверие Второй мировой войны. Вилли Старк — ультраправый политический деятель — стремится к монопольной власти в своём штате. Его «выдрессированная» команда профессиональных журналистов и аналитиков, используя любые средства — подлог, обман, грязный шантаж, насилие и вымогательство приводит своего лидера к победе на выборах. Старку принадлежит всё в его штате — от скромной недвижимости до гигантских заводов. Он всемогущ и рвётся в высшие эшелоны власти… Экранизация одноименного романа Роберта Пенна Уоррена.

Качество: BDRip 1080p
Формат: MKV
Видео кодек: H.264
Аудио кодек: AC3, DTS
Видео: 13.9 Mбит/с, 1440x1080, 23.976 кадра/с, 0.372 bpp
Аудио 1: русский, AC3, 448 kbps, 2 ch, 48 kHz [профессиональный двухголосый, New Dream Media]
Аудио 2: русский, AC3, 192 kbps, 2 ch, 48 kHz [профессиональный двухголосый, НТВ+ с iTunes Russia]
Аудио 3: английский, DTS, 768 kbps, 1 ch, 48 kHz [оригинал]
Имеются неименованные главы/чаптеры.

Награды

Оскар, 1950 год
Победитель (3):
Лучший фильм
Лучшая мужская роль (Бродерик Кроуфорд)
Лучшая женская роль второго плана (Мерседес МакКэмбридж)
Номинации (4):
Лучшая мужская роль второго плана (Джон Айрленд)
Лучший режиссер (Роберт Россен)
Лучший адаптированный сценарий
Лучший монтаж
Золотой глобус, 1950 год
Победитель (5):
Лучший фильм (драма)
Лучшая мужская роль (Бродерик Кроуфорд)
Лучший режиссер (Роберт Россен)
Лучшая женская роль второго плана (Мерседес МакКэмбридж)
Самый многообещающий новичок среди женщин (Мерседес МакКэмбридж)
Номинации (2):
Лучший саундтрек
Лучшая работа оператора (ч/б фильмы)
Венецианский кинофестиваль, 1950 год
Номинации (1):
Золотой лев

Кванты и MediaInfo

frame I:1003 Avg QP:20.56 size:181388
frame P:28041 Avg QP:21.67 size:110280
frame B:128853 Avg QP:23.56 size: 65255
Общее
Уникальный идентификатор : 222519251688553410431411279451720459790 (0xA767A6250EE2F2A3BA5326ABDDD3260E)
Полное имя : D:VideoVsja korolevskaja rat.1949.BDRip.1080p.mkv
Формат : Matroska
Версия формата : Version 4 / Version 2
Размер файла : 12,0 Гбайт
Продолжительность : 1 ч. 49 м.
Общий поток : 15,6 Мбит/сек
Дата кодирования : UTC 2015-03-01 15:39:52
Программа кодирования : mkvmerge v7.6.0 ('Garden of Dreams') 64bit built on Feb 8 2015 13:04:34
Библиотека кодирования : libebml v1.3.1 + libmatroska v1.4.2
_STATISTICS_WRITING_APP : mkvmerge v7.6.0 ('Garden of Dreams') 64bit built on Feb 8 2015 13:04:34
_STATISTICS_WRITING_DATE_UTC : 2015-03-01 15:39:52
_STATISTICS_TAGS : BPS DURATION NUMBER_OF_FRAMES NUMBER_OF_BYTES
DURATION : 01:49:45.622000000
NUMBER_OF_FRAMES : 617402
NUMBER_OF_BYTES : 632219708
Видео
Идентификатор : 1
Формат : AVC
Формат/Информация : Advanced Video Codec
Профиль формата : High@L4.1
Параметр CABAC формата : Да
Параметр ReFrames формата : 4 кадра
Идентификатор кодека : V_MPEG4/ISO/AVC
Продолжительность : 1 ч. 49 м.
Битрейт : 13,9 Мбит/сек
Ширина : 1440 пикселей
Высота : 1080 пикселей
Соотношение сторон : 4:3
Режим частоты кадров : Постоянный
Частота кадров : 23,976 кадра/сек
Цветовое пространство : YUV
Субдискретизация насыщенности : 4:2:0
Битовая глубина : 8 бит
Тип развёртки : Прогрессивная
Бит/(Пиксели*Кадры) : 0.372
Размер потока : 10,6 Гбайт (89%)
Заголовок : BDRip -- STarankov
Библиотека кодирования : x264 core 142 r2431 ac76440
Настройки программы : cabac=1 / ref=4 / deblock=1:-2:-2 / analyse=0x3:0x113 / me=umh / subme=9 / psy=1 / psy_rd=1.00:0.15 / mixed_ref=1 / me_range=32 / chroma_me=1 / trellis=2 / 8x8dct=1 / cqm=0 / deadzone=21,11 / fast_pskip=1 / chroma_qp_offset=-3 / threads=6 / lookahead_threads=1 / sliced_threads=0 / nr=0 / decimate=1 / interlaced=0 / bluray_compat=0 / constrained_intra=0 / bframes=8 / b_pyramid=2 / b_adapt=2 / b_bias=0 / direct=3 / weightb=1 / open_gop=0 / weightp=2 / keyint=230 / keyint_min=23 / scenecut=40 / intra_refresh=0 / rc_lookahead=40 / rc=crf / mbtree=0 / crf=20.2 / qcomp=0.60 / qpmin=0 / qpmax=69 / qpstep=4 / vbv_maxrate=50000 / vbv_bufsize=62500 / crf_max=0.0 / nal_hrd=none / filler=0 / ip_ratio=1.40 / pb_ratio=1.30 / aq=1:1.00
Язык : English
Default : Да
Forced : Нет
DURATION : 01:49:45.621000000
NUMBER_OF_FRAMES : 157897
NUMBER_OF_BYTES : 11682594141
_STATISTICS_WRITING_APP : mkvmerge v7.6.0 ('Garden of Dreams') 64bit built on Feb 8 2015 13:04:34
_STATISTICS_WRITING_DATE_UTC : 2015-03-01 15:39:52
_STATISTICS_TAGS : BPS DURATION NUMBER_OF_FRAMES NUMBER_OF_BYTES
Аудио #1
Идентификатор : 2
Формат : AC-3
Формат/Информация : Audio Coding 3
Расширение режима : CM (complete main)
Параметр Endianness формата : Big
Идентификатор кодека : A_AC3
Продолжительность : 1 ч. 49 м.
Вид битрейта : Постоянный
Битрейт : 448 Кбит/сек
Каналы : 2 канала
Расположение каналов : Front: L R
Частота : 48,0 КГц
Битовая глубина : 16 бит
Метод сжатия : С потерями
Размер потока : 352 Мбайт (3%)
Заголовок : DVO (New Dream Media)
Язык : Russian
Default : Да
Forced : Нет
Аудио #2
Идентификатор : 3
Формат : AC-3
Формат/Информация : Audio Coding 3
Расширение режима : CM (complete main)
Параметр Endianness формата : Big
Идентификатор кодека : A_AC3
Продолжительность : 1 ч. 49 м.
Вид битрейта : Постоянный
Битрейт : 192 Кбит/сек
Каналы : 2 канала
Расположение каналов : Front: L R
Частота : 48,0 КГц
Битовая глубина : 16 бит
Метод сжатия : С потерями
Размер потока : 151 Мбайт (1%)
Заголовок : DVO (НТВ+ с iTunes Russia)
Язык : Russian
Default : Нет
Forced : Нет
Аудио #3
Идентификатор : 4
Формат : DTS
Формат/Информация : Digital Theater Systems
Режим : 16
Параметр Endianness формата : Big
Идентификатор кодека : A_DTS
Продолжительность : 1 ч. 49 м.
Вид битрейта : Постоянный
Битрейт : 768 Кбит/сек
Каналы : 1 канал
Расположение каналов : Front: C
Частота : 48,0 КГц
Битовая глубина : 24 бит
Метод сжатия : С потерями
Размер потока : 603 Мбайт (5%)
Заголовок : Original
Язык : English
Default : Нет
Forced : Нет
Текст
Идентификатор : 5
Формат : UTF-8
Идентификатор кодека : S_TEXT/UTF8
Идентификатор кодека/Информация : UTF-8 Plain Text
Заголовок : английский
Язык : English
Default : Нет
Forced : Нет
Меню
00:00:00.000 : :Chapter 01
00:10:57.239 : :Chapter 02
00:18:57.759 : :Chapter 03
00:30:14.604 : :Chapter 04
00:38:31.265 : :Chapter 05
00:47:11.828 : :Chapter 06
00:57:22.438 : :Chapter 07
01:06:29.402 : :Chapter 08
01:14:03.895 : :Chapter 09
01:24:30.604 : :Chapter 10
01:38:34.658 : :Chapter 11
01:49:26.434 : :Chapter 12
01:49:45.368 : :Chapter 13

Скриншоты

[Профиль] [ЛС]
Кто просматривает тему:

Показать сообщения:    

Текущее время: Сегодня 20:27

Часовой пояс: GMT



Вы не можете начинать темы
Вы не можете отвечать на сообщения
Вы не можете редактировать свои сообщения
Вы не можете удалять свои сообщения
Вы не можете голосовать в опросах
Вы не можете прикреплять файлы к сообщениям
Вы не можете скачивать файлы