Встречное расследование / Contre-enquête / Contre enquete / (Франк Манкузо / Franck Mancuso) [2007 г., Франция, Криминал, HDRip] Dub (UMP/GFS) + MVO + Original (fre) + sub

 
Автор Сообщение

TorrentFilm ®

Пол:

Стаж: 2 года

Сообщений: 7741



Награды: Нет

Торрент-статистика

Создавать темы 21-Дек-2014 02:15

[Цитировать]

Встречное расследование / Contre-enquêteГод выпуска: 2007
Страна: Франция | |
Жанр: Криминальная драма
Продолжительность: 01:24:03
Перевод#1: Профессиональный (полное дублирование) - UMP/GFS
Перевод#2: Профессиональный (многоголосый, закадровый)

Оригинальная звуковая дорожка [French]
Субтитры: RUS | *srt |
Режиссер: Франк Манкузо / Franck Mancuso
Сценарий: Франк Манкузо / Franck Mancuso, Лоуренс Блок / Lawrence Block
Продюсер: Патрик Хименес / Patrick Gimenez, Ромейн Ле Гранд / Romain Le Grand, Франсуа Гуерра / François Guerrar, Эрик Юбер / Eric Hubert
Оператор: Жером Альмерас / Jérôme Alméras
Композитор: Кришна Леви / Krishna Levy
В ролях: Жан Дюжарден (Richard Malinowski), Лоран Люка (Daniel Eckmann), Агнес Бланшо (Claire Malinowski), Орельен Рекуан (Josse), Жак Франц (Michel Arnalde), Жан-Франсуа Гарро (Salinas), Жан-Пьер Кассель (Docteur Delmas), Александра Гонкалвес (Emilie Malinowski), Клодин Винсент (Catherine Courrieux), Каролин Сантини (Christiane Carlier), Мари Гийяр (Mathilde Josse), Гэбриел Манкусо (Gabriel Josse)
Дублёры: Александр Груздев (Richard Malinowski), Людмила Ильина (Claire Malinowski; Emilie Malinowski)-Бюджет: €7 600 000
Сборы в США: $11 846
Сборы в России: $139 491
Сборы в мире: $8 029 345
Мировая премьера: 10 февраля 2007
Релиз на DVD: 7 февраля 2008, «CP-Digital»-Описание: Вращающийся в высших кругах капитан полиции Ричард Малиновски имеет все, о чем можно только мечтать: у него успешная карьера, любимые жена и дочь - жизнь без проблем. Однажды, когда Ричард собирается провести свободное время со своей дочерью, раздается телефонный звонок и полицейскому приходится ехать по срочному заданию. Вернувшись, он находит свою дочь мертвой.- Рейтинг
kinopoisk.ru: 7.128 (1056)
imdb.com: 6.60 (1715)
-Качество: HDRip [BDRip 1080p -FHD]
Формат: AVI ///СОВМЕСТИМО С БЫТОВЫМИ ПЛЕЕРАМИ///
Размер : 1/3 DVD-R
Видео: 720x304 (2.37:1), 23.976 fps, XviD build 66 ~1636 kbps avg, 0.31 bit/pixel //SAMPLE//
Аудио#1: 48 kHz, AC3 Dolby Digital, 3/2 (L,C,R,l,r) + LFE ch, ~448 kbps - RUS - Dub [UMP/GFS]
Аудио#2: 48 kHz, AC3 Dolby Digital, 3/2 (L,C,R,l,r) + LFE ch, ~384 kbps - Original [French]

Отдельно:
Аудио: 48 kHz, MPEG Layer 3, 2 ch, ~128.00 kbps avg - RUS - MVO → (Cпасибо FreedomCrank)
MIКод:General
Complete name : H:\!Allfilms\Vstrechnoe.Rassledovanie.2007.DUAL.XviD.HDRip\Vstrechnoe.Rassledovanie.2007.DUAL.XviD.HDRip.avi
Format : AVI
Format/Info : Audio Video Interleave
File size : 1.46 GiB
Duration : 1h 24mn
Overall bit rate : 2 483 Kbps
Movie name : Встречное расследование / Contre-enquete [2007] HDRip
Director : Юpист
Genre : криминал
Writing application : VirtualDubMod 1.5.10.3 | www.virtualdub-fr.org || (build 2550/release)
Writing library : VirtualDubMod build 2550/release
Copyright : tru
Video
ID : 0
Format : MPEG-4 Visual
Format profile : Advanced Simple@L5
Format settings, BVOP : 1
Format settings, QPel : No
Format settings, GMC : No warppoints
Format settings, Matrix : Custom
Codec ID : XVID
Codec ID/Hint : XviD
Duration : 1h 24mn
Bit rate : 1 637 Kbps
Width : 720 pixels
Height : 304 pixels
Display aspect ratio : 2.35:1
Frame rate : 23.976 fps
Color space : YUV
Chroma subsampling : 4:2:0
Bit depth : 8 bits
Scan type : Progressive
Compression mode : Lossy
Bits/(Pixel*Frame) : 0.312
Stream size : 984 MiB (66%)
Writing library : XviD 66
Audio #1
ID : 1
Format : AC-3
Format/Info : Audio Coding 3
Mode extension : CM (complete main)
Format settings, Endianness : Big
Codec ID : 2000
Duration : 1h 24mn
Bit rate mode : Constant
Bit rate : 448 Kbps
Channel(s) : 6 channels
Channel positions : Front: L C R, Side: L R, LFE
Sampling rate : 48.0 KHz
Bit depth : 16 bits
Compression mode : Lossy
Stream size : 269 MiB (18%)
Alignment : Split accross interleaves
Interleave, duration : 42 ms (1.00 video frame)
Interleave, preload duration : 500 ms
Title : RUS - Dub [UMP/GFS]
Audio #2
ID : 2
Format : AC-3
Format/Info : Audio Coding 3
Mode extension : CM (complete main)
Format settings, Endianness : Big
Codec ID : 2000
Duration : 1h 24mn
Bit rate mode : Constant
Bit rate : 384 Kbps
Channel(s) : 6 channels
Channel positions : Front: L C R, Side: L R, LFE
Sampling rate : 48.0 KHz
Bit depth : 16 bits
Compression mode : Lossy
Stream size : 231 MiB (15%)
Alignment : Split accross interleaves
Interleave, duration : 42 ms (1.00 video frame)
Interleave, preload duration : 500 ms
Title : Original [French]

-

Скриншоты


-
Сравнениеhttp://screenshotcomparison.com/comparison/102445/picture:2 ==> http://torrentfilm.net/forum/viewtopic.php?t=856614
!Важная инфаОчень неудачно наложен дубляж, временами происходит вот такое https://yadi.sk/i/KjDaqgIGd5eqW
точно так же и на лицензии, и на здешнем HDTVRipe . Дороги как мог подогнал, картинки: 1, 2 - переукладкой голоса заниматься не буду .
Советую смотреть в оригинале, на крайняк закадровый
Семпл DVDRip
http://screenshotcomparison.com/comparison/102502/picture:1 ==> http://i66.fastpic.ru/big/2014/1202/b0/c48ff0a04196...44a1874986b0.png
http://screenshotcomparison.com/comparison/102503/picture:3 ==> i,p-
[Профиль] [ЛС]

Создавать темы 06-Авг-2015 22:53 (спустя 7 месяцев 16 дней)

Топик был перенесен из форума Фильмы до 2014 года в форум Фильмы до 2012 года
sergej644
 
Кто просматривает тему:

Форум Тема Автор Размер
Cборники 70х-80х-90х (Ретро) (Pop ,Rock) VA - 70 композиций для Романтической Встречи - 2013, MP3, 320 kbps Magnat 684 MB
Discovery Discovery: Плутон: первая встреча / Direct from Pluto-The First Encounter (Shelley Ayres) [2015 г., Документальный, научно-популярный, HDTVRip 720p] skorpionN 1.13 GB
National Geographic NG: Новые горизонты. Миссия: Плутон (Встреча с Плутоном) / New Horizons: Die Pluto Mission (Nic Young) [2014 г., Документальный, научно-познавательный, космос, HDTVRip 720p] skorpionN 1.09 GB
Фильмы 2014 года Встреча выпускников 2: Похороны / Klassefesten 2: Begravelsen (2014) DVDRip от Brazzass | Sub sergej644 1.46 GB
Фильмы 2014 года Встреча выпускников 2: Похороны / Klassefesten 2: Begravelsen (2014) HDRip | L1 BOSS 1.45 GB
Фильмы (HD Rips | 720p, 1080p) Встреча с угрозой / Encounter with Danger (2009) HDTVRip 720p sergej644 2.37 GB
Кино СССР Встречи на рассвете (Эдуард Гаврилов, Валерий Кремнев) [1968, мелодрама, экранизация, DVB] reversefile 1.84 GB
Азиатские фильмы Встречи с привидениями / Gui da gui (1980) HDRip от MegaPeer | A Russian Mafia 1.46 GB
Показать сообщения:    

Текущее время: Сегодня 18:58

Часовой пояс: GMT



Вы не можете начинать темы
Вы не можете отвечать на сообщения
Вы не можете редактировать свои сообщения
Вы не можете удалять свои сообщения
Вы не можете голосовать в опросах
Вы не можете прикреплять файлы к сообщениям
Вы не можете скачивать файлы