Встречи на рассвете (Эдуард Гаврилов, Валерий Кремнев) [1968, мелодрама, экранизация, DVB]

 
Автор Сообщение

reversefile ®

Пол:

Стаж: 4 года 5 месяцев

Сообщений: 842

Откуда: ReverseFile.org



Награды: Нет

Торрент-статистика

Создавать темы 11-Авг-2014 06:19

[Цитировать]

Встречи на рассвете
Жанр: мелодрама, экранизация
Год выпуска: 1968
Продолжительность: 1:27:24
Режиссёры: Эдуард Гаврилов, Валерий Кремнев
В ролях: Тамара Дегтярёва, Юрий Назаров, Анатолий Кузнецов, Георгий Жжёнов, Евгений Шутов, Ольга Аросева, Владимир Андреев, Светлана Харитонова, Люсьена Овчинникова, Элла Некрасова, Тамара Совчи, Эмилия Сердюк, Клавдия Хабарова, Акилина Колесова, Екатерина Мазурова, Валерий Васильев...
Описание: По повести Анатолия Кузнецова "У себя дома".
Вернувшись в село, Галя Макарова начинает работать на ферме. После увольнения нерадивой заведующей она вместе с другими доярками старается навести порядок. Скоро наметились успехи. Влюбившись в пастуха Костю, она узнает, что многие из её новых подруг были его любовницами, и расстаётся с ним...
Семпл: https://www.sendspace.com/file/xsyb28
Качество видео: DVB
Формат видео: MPEG-PS
Видео: MPEG2 Video 720x576 (4:3) 25.00fps 2754 Kbps (5000 Kbps)
Аудио: Русский MPEG Audio 48000Hz stereo 192Kbps

MediaInfo

Общее
Полное имя : E:\Torrents\Встречи на рассвете.mpg
Формат : MPEG-PS
Размер файла : 1,84 Гбайт
Продолжительность : 1 ч. 27 м.
Режим общего битрейта : Переменный
Общий поток : 3006 Кбит/сек
Библиотека кодирования : (c) 1998-2011 Womble Multimedia, Inc. / MPEG Video Wizard DVD 5.0.1.100 (03/2011) / Jun 19 2011
Видео
Идентификатор : 224 (0xE0)
Формат : MPEG Video
Версия формата : Version 2
Профиль формата : Main@Main
Параметр BVOP формата : Да
Параметр матрицы формата : Выборочная
Параметр GOP формата : M=3, N=12
Продолжительность : 1 ч. 27 м.
Вид битрейта : Переменный
Битрейт : 2754 Кбит/сек
Максимальный битрейт : 5000 Кбит/сек
Ширина : 720 пикселей
Высота : 576 пикселей
Соотношение сторон : 4:3
Частота кадров : 25,000 кадров/сек
Стандарт вещания : PAL
Цветовое пространство : YUV
Субдискретизация насыщенности : 4:2:0
Битовая глубина : 8 бит
Тип развёртки : Чересстрочная
Порядок развёртки : Верхнее поле первое
Метод сжатия : С потерями
Бит/(Пиксели*Кадры) : 0.266
Размер потока : 1,68 Гбайт (92%)
Библиотека кодирования : (c) 1998-2011 Womble Multimedia, Inc. / MPEG Video Wizard DVD 5.0.1.100 (03/2011) / Jun 19 2011
Аудио
Идентификатор : 192 (0xC0)
Формат : MPEG Audio
Версия формата : Version 1
Профиль формата : Layer 2
Продолжительность : 1 ч. 27 м.
Вид битрейта : Постоянный
Битрейт : 192 Кбит/сек
Каналы : 2 канала
Частота : 48,0 КГц
Метод сжатия : С потерями
Задержка видео : -80 мс.
Размер потока : 120 Мбайт (6%)
Меню

Скриншоты


[Профиль] [ЛС]

Создавать темы 06-Авг-2015 22:04 (спустя 11 месяцев 26 дней)

Топик был перенесен из форума Кино СССР в форум Кино СССР
sergej644
 
Кто просматривает тему:

Форум Тема Автор Размер
Cборники 70х-80х-90х (Ретро) (Pop ,Rock) VA - 70 композиций для Романтической Встречи - 2013, MP3, 320 kbps Magnat 684 MB
Discovery Discovery: Плутон: первая встреча / Direct from Pluto-The First Encounter (Shelley Ayres) [2015 г., Документальный, научно-популярный, HDTVRip 720p] skorpionN 1.13 GB
National Geographic NG: Новые горизонты. Миссия: Плутон (Встреча с Плутоном) / New Horizons: Die Pluto Mission (Nic Young) [2014 г., Документальный, научно-познавательный, космос, HDTVRip 720p] skorpionN 1.09 GB
Фильмы 2014 года Встреча выпускников 2: Похороны / Klassefesten 2: Begravelsen (2014) DVDRip от Brazzass | Sub sergej644 1.46 GB
Фильмы 2014 года Встреча выпускников 2: Похороны / Klassefesten 2: Begravelsen (2014) HDRip | L1 BOSS 1.45 GB
Фильмы (HD Rips | 720p, 1080p) Встреча с угрозой / Encounter with Danger (2009) HDTVRip 720p sergej644 2.37 GB
Азиатские фильмы Встречи с привидениями / Gui da gui (1980) HDRip от MegaPeer | A Russian Mafia 1.46 GB
Фильмы 2011 года Встречное расследование / Contre-enquête / Contre enquete / (Франк Манкузо / Franck Mancuso) [2007 г., Франция, Криминал, HDRip] Dub (UMP/GFS) + MVO + Original (fre) + sub TorrentFilm 1.53 GB
Показать сообщения:    

Текущее время: Сегодня 11:58

Часовой пояс: GMT



Вы не можете начинать темы
Вы не можете отвечать на сообщения
Вы не можете редактировать свои сообщения
Вы не можете удалять свои сообщения
Вы не можете голосовать в опросах
Вы не можете прикреплять файлы к сообщениям
Вы не можете скачивать файлы