Вспоминая Уитни Хьюстон / The Houstons Remember Whitney (Стефани Блэк) [2015, Документальный, HDTV 720p]

 
Автор Сообщение

TorrentFilm ®

Пол:

Стаж: 2 года

Сообщений: 7741



Награды: Нет

Торрент-статистика

Создавать темы 25-Апр-2015 00:02

[Цитировать]

Вспоминая Уитни Хьюстон / The Houstons Remember Whitney- Год выпуска: 2015
Страна: США
Студия: GRB Entertainment
Жанр: Документальный
Продолжительность: 0:41:35
Перевод: Субтитры (ХардСаб)
Русские субтитры: есть
Режиссер: Стефани Блэк / Stephanie Black-Описание: Самая успешная исполнительница в истории мировой музыки. Самый узнаваемый голос в мире. Самая скандальная артистка своего времени. Фильм, посвященный памяти Уитни Хьюстон. Архивные материалы, закулисные съемки, а также интервью родственников и друзей.- -Автор рипа: lrn
Автор записи: Alexin29
Сэмпл: sendfile-Тип релиза: HDTV 720p
Контейнер: MKV
Видео: 1280x720 (16:9), 25,000 fps, H264, ~4000 kbps avg, ~0.174 bit/pixel
Аудио: 48 kHz, AC3 Dolby Digital, 3/2 (L,C,R,l,r) + LFE ch, ~384.00 kbps avg-

MediaInfo

GeneralUnique ID : 225099270602211443403613283712709476317 (0xA9588AE5F318FF1D88928A9516E0BFDD)Complete name : E:\uTorrent.Temp\Temp\The.Houstons.Remember.Whitney.2012.HDTV.720p.x264-RUS-lrn.mkvFormat : MatroskaFormat version : Version 4 / Version 2File size : 1.27 GiBDuration : 41mn 35sOverall bit rate : 4 386 KbpsMovie name : The.Houstons.Remember.Whitney.2012.HDTV.720p.x264-RUS-lrnEncoded date : UTC 2010-02-22 21:41:31Writing application : mkvmerge v5.9.0 ('On The Loose') built on Dec 9 2012 15:37:01Writing library : libebml v1.3.0 + libmatroska v1.4.0DURATION : 00:41:35.200000000NUMBER_OF_FRAMES : 62380NUMBER_OF_BYTES : 1247754429_STATISTICS_WRITING_APP : mkvmerge v7.7.0 ('Six Voices') 32bit built on Feb 28 2015 23:23:00_STATISTICS_WRITING_DATE_UT : 2015-04-06 07:39:42_STATISTICS_TAGS : BPS DURATION NUMBER_OF_FRAMES NUMBER_OF_BYTES
VideoID : 1Format : AVCFormat/Info : Advanced Video CodecFormat profile : High@L4.1Format settings, CABAC : YesFormat settings, ReFrames : 8 framesCodec ID : V_MPEG4/ISO/AVCDuration : 41mn 35sBit rate : 4 000 KbpsWidth : 1 280 pixelsHeight : 720 pixelsDisplay aspect ratio : 16:9Frame rate mode : ConstantFrame rate : 25.000 fpsColor space : YUVChroma subsampling : 4:2:0Bit depth : 8 bitsScan type : ProgressiveBits/(Pixel*Frame) : 0.174Stream size : 1.14 GiB (89%)Writing library : x264 core 146 r2538 121396cEncoding settings : cabac=1 / ref=8 / deblock=1:-3:-3 / analyse=0x3:0x133 / me=umh / subme=9 / psy=1 / psy_rd=1.00:0.00 / mixed_ref=1 / me_range=32 / chroma_me=1 / trellis=2 / 8x8dct=1 / cqm=0 / deadzone=21,11 / fast_pskip=1 / chroma_qp_offset=-2 / threads=12 / lookahead_threads=2 / sliced_threads=0 / nr=0 / decimate=1 / interlaced=0 / bluray_compat=0 / constrained_intra=0 / bframes=8 / b_pyramid=2 / b_adapt=2 / b_bias=0 / direct=3 / weightb=1 / open_gop=0 / weightp=2 / keyint=250 / keyint_min=25 / scenecut=40 / intra_refresh=0 / rc_lookahead=50 / rc=2pass / mbtree=1 / bitrate=4000 / ratetol=1.0 / qcomp=0.60 / qpmin=0 / qpmax=69 / qpstep=4 / cplxblur=20.0 / qblur=0.5 / vbv_maxrate=62500 / vbv_bufsize=78125 / nal_hrd=none / filler=0 / ip_ratio=1.40 / aq=1:1.00Default : YesForced : No
AudioID : 2Format : AC-3Format/Info : Audio Coding 3Mode extension : CM (complete main)Format settings, Endianness : BigCodec ID : A_AC3Duration : 41mn 35sBit rate mode : ConstantBit rate : 384 KbpsChannel(s) : 6 channelsChannel positions : Front: L C R, Side: L R, LFESampling rate : 48.0 KHzBit depth : 16 bitsCompression mode : LossyStream size : 114 MiB (9%)Language : EnglishDefault : YesForced : No

x264 log

raw [info]: 1280x720p 1:1 @ 25/1 fps (cfr)x264 [info]: using SAR=1/1x264 [info]: using cpu capabilities: MMX2 SSE2Fast SSSE3 SSE4.2 AVXx264 [info]: profile High, level 4.1x264 [info]: frame I:438 Avg QP:14.50 size:115190x264 [info]: frame P:13346 Avg QP:17.41 size: 42308x264 [info]: frame B:48596 Avg QP:19.46 size: 13019x264 [info]: consecutive B-frames: 1.6% 2.0% 5.6% 28.0% 25.8% 19.2% 8.4% 4.4% 5.1%x264 [info]: mb I I16..4: 4.1% 81.5% 14.4%x264 [info]: mb P I16..4: 1.2% 13.1% 1.1% P16..4: 43.3% 23.0% 13.4% 0.3% 0.1% skip: 4.5%x264 [info]: mb B I16..4: 0.1% 1.2% 0.1% B16..8: 36.1% 9.1% 2.1% direct: 9.3% skip:42.0% L0:42.7% L1:47.0% BI:10.2%x264 [info]: 8x8 transform intra:84.9% inter:66.3%x264 [info]: direct mvs spatial:99.1% temporal:0.9%x264 [info]: coded y,uvDC,uvAC intra: 86.4% 85.6% 56.0% inter: 29.9% 29.1% 2.5%x264 [info]: i16 v,h,dc,p: 25% 16% 9% 51%x264 [info]: i8 v,h,dc,ddl,ddr,vr,hd,vl,hu: 13% 10% 7% 8% 11% 13% 12% 12% 13%x264 [info]: i4 v,h,dc,ddl,ddr,vr,hd,vl,hu: 14% 15% 4% 8% 13% 13% 12% 10% 11%x264 [info]: i8c dc,h,v,p: 44% 23% 18% 16%x264 [info]: Weighted P-Frames: Y:1.7% UV:0.6%x264 [info]: ref P L0: 43.7% 9.6% 18.8% 7.5% 6.8% 5.1% 4.9% 3.3% 0.3% 0.0%x264 [info]: ref B L0: 79.6% 10.5% 4.3% 2.3% 1.7% 1.0% 0.6%x264 [info]: ref B L1: 95.2% 4.8%x264 [info]: kb/s:4000.49encoded 62380 frames, 13.60 fps, 4000.49 kb/s

Скриншоты

-
[Профиль] [ЛС]
Показать сообщения:    

Текущее время: Сегодня 20:43

Часовой пояс: GMT



Вы не можете начинать темы
Вы не можете отвечать на сообщения
Вы не можете редактировать свои сообщения
Вы не можете удалять свои сообщения
Вы не можете голосовать в опросах
Вы не можете прикреплять файлы к сообщениям
Вы не можете скачивать файлы