Вспоминая Уитни Хьюстон / The Houstons Remember Whitney (Стефани Блэк / Stephanie Black) [2012, Документальный, музыка, биография, HDTV 1080i] Eng + Sub (Rus)

 
Автор Сообщение

TorrentFilm ®

Пол:

Стаж: 2 года

Сообщений: 7741



Награды: Нет

Торрент-статистика

Создавать темы 08-Апр-2015 00:03

[Цитировать]

Вспоминая Уитни Хьюстон / The Houstons Remember Whitney
Год выпуска: 2012
Страна: США
Студия: GRB Entertainment
Жанр: Документальный, музыка, биография
Продолжительность: 00:41:35
Перевод: Субтитры
Русские субтитры: есть
Режиссер: Стефани Блэк / Stephanie Black
Описание: Самая успешная исполнительница в истории мировой музыки. Самый узнаваемый голос в мире. Самая скандальная артистка своего времени. Фильм, посвященный памяти Уитни Хьюстон. Архивные материалы, закулисные съемки, а также интервью родственников и друзей.
IMDb
Тип релиза: HDTV 1080i
Контейнер: TS
Видео: AVC/H.264, 1920х1080, 6512 Кбит/с, 16:9
Аудио: Английский, АС3, 6 ch, 384 Кбит/с
Аудио 2: Английский, MP2, 2 ch, 192 Кбит/с
Формат субтитров: Вшитые (неотключаемые)

MediaInfo

GeneralID : 1 (0x1)Complete name : F:\Вспоминая Уитни Хьюстон.tsFormat : MPEG-TSFile size : 2.17 GiBDuration : 41mn 35sOverall bit rate mode : VariableOverall bit rate : 7 463 Kbps
VideoID : 303 (0x12F)Menu ID : 1 (0x1)Format : AVCFormat/Info : Advanced Video CodecFormat profile : High@L4.0Format settings, CABAC : YesFormat settings, ReFrames : 4 framesCodec ID : 27Duration : 41mn 35sBit rate : 6 512 KbpsWidth : 1 920 pixelsHeight : 1 080 pixelsDisplay aspect ratio : 16:9Frame rate : 25.000 fpsStandard : ComponentColor space : YUVChroma subsampling : 4:2:0Bit depth : 8 bitsScan type : InterlacedScan order : Top Field FirstBits/(Pixel*Frame) : 0.126Stream size : 1.89 GiB (87%)Color primaries : BT.709Transfer characteristics : BT.709Matrix coefficients : BT.709
Audio #1ID : 403 (0x193)Menu ID : 1 (0x1)Format : AC-3Format/Info : Audio Coding 3Mode extension : CM (complete main)Format settings, Endianness : BigCodec ID : 6Duration : 41mn 35sBit rate mode : ConstantBit rate : 384 KbpsChannel(s) : 6 channelsChannel positions : Front: L C R, Side: L R, LFESampling rate : 48.0 KHzBit depth : 16 bitsCompression mode : LossyStream size : 114 MiB (5%)Language : Russian
Audio #2ID : 423 (0x1A7)Menu ID : 1 (0x1)Format : MPEG AudioFormat version : Version 1Format profile : Layer 2Codec ID : 3Duration : 41mn 35sBit rate mode : ConstantBit rate : 192 KbpsChannel(s) : 2 channelsSampling rate : 48.0 KHzCompression mode : LossyStream size : 57.1 MiB (3%)Language : English
TextID : 503 (0x1F7)-888Menu ID : 1 (0x1)Format : Teletext SubtitleLanguage : Russian
MenuID : 203 (0xCB)Menu ID : 1 (0x1)Duration : 41mn 35sList : 303 (0x12F) (AVC) / 403 (0x193) (AC-3, Russian) / 423 (0x1A7) (MPEG Audio, English) / 503 (0x1F7) ()Language : / Russian / English
[Профиль] [ЛС]
Показать сообщения:    

Текущее время: Сегодня 06:28

Часовой пояс: GMT



Вы не можете начинать темы
Вы не можете отвечать на сообщения
Вы не можете редактировать свои сообщения
Вы не можете удалять свои сообщения
Вы не можете голосовать в опросах
Вы не можете прикреплять файлы к сообщениям
Вы не можете скачивать файлы