Все, что у меня есть / Freeheld (2015) HDRip | D | iTunes

 
Автор Сообщение

BOSS ®

Пол:

Стаж: 2 года 1 месяц

Сообщений: 3735

Откуда: ODESSA



Награды: 20 (Подробнее)

Top Seeder 2 (Количество: 1) Mega Releaser 2 (Количество: 1) Top Keeper 3 (Количество: 1)
Торрент-статистика

Создавать темы 06-Июн-2016 12:57

[Цитировать]

Все, что у меня есть / Право на наследие / Freeheld
Страна: США
Производство: Double Feature Films, Endgame Entertainment, Head Gear Films, Metrol Technology
Год выпуска: 2015
Жанр: драма, мелодрама, биография
Продолжительность: 01:43:20
Режиссер: Питер Соллетт
Автор сценария: Рон Нисуонер
В ролях: Джулианна Мур, Эллен Пейдж, Майкл Шеннон, Стив Карелл, Люк Граймс, Гэбриел Луна, Энтони ДеСандо, Скипп Саддат
Описание: В опасной работе детектива женщина-полицейский Лорел Хестер полностью доверяет своим напарникам, с которыми она рискует жизнью на злачных улицах Нью-Джерси. Она скрывает от них только одно: свою юную возлюбленную Стейси. Их тихое счастье оказывается под угрозой, когда Лорел впервые встречает препятствие, которое она не в силах преодолеть, — смертельную болезнь. Посвятившая жизнь борьбе за справедливость детектив Хестер вступает в свой последний бой — битву с системой за право оставить наследство женщине, которую любит. Битву, изменившую мир...

Перевод: Профессиональный (полное дублирование) | iTunes
Субтитры: нет-Качество: HDRip
Формат: АVI
Видео кодек: XviD
Аудио кодек: АС3
Видео: 720x384 (1.85:1), 23.976 fps, XviD ~1 501 kbps avg
Аудио: 48 kHz, AC3 Dolby Digital, 3/2 (L,C,R,l,r) + LFE ch, ~384 kbps
Дата премьеры (мир): 13 сентября 2015
Дата премьеры (РФ): 5 мая 2016, «Артхаус»

Media Info

General
Complete name : BC10.4t0.u.meH1a.jeCt.2O15.D.HDRip.14OOMB.avi
Format : AVI
Format/Info : Audio Video Interleave
File size : 1.37 GiB
Duration : 1h 43mn
Overall bit rate : 1 894 Kbps
Movie name : BC10.4t0.u.meH1a.jeCt.2O15.D.HDRip.14OOMB
Writing application : VirtualDubMod 1.5.10.2 (build 2540/release)
Original source form/Name : Movie
Video
ID : 0
Format : MPEG-4 Visual
Format profile : Advanced Simple@L5
Format settings, BVOP : 2
Format settings, QPel : No
Format settings, GMC : No warppoints
Format settings, Matrix : Default (MPEG)
Codec ID : XVID
Codec ID/Hint : XviD
Duration : 1h 43mn
Bit rate : 1 501 Kbps
Width : 720 pixels
Height : 384 pixels
Display aspect ratio : 1.85:1
Frame rate : 23.976 (24000/1001) fps
Color space : YUV
Chroma subsampling : 4:2:0
Bit depth : 8 bits
Scan type : Progressive
Compression mode : Lossy
Bits/(Pixel*Frame) : 0.226
Stream size : 1.08 GiB (79%)
Writing library : XviD 1.2.1 (UTC 2008-12-04)
Audio
ID : 1
Format : AC-3
Format/Info : Audio Coding 3
Mode extension : CM (complete main)
Format settings, Endianness : Big
Codec ID : 2000
Duration : 1h 43mn
Bit rate mode : Constant
Bit rate : 384 Kbps
Channel(s) : 6 channels
Channel positions : Front: L C R, Side: L R, LFE
Sampling rate : 48.0 KHz
Frame rate : 31.250 fps (1536 spf)
Compression mode : Lossy
Stream size : 284 MiB (20%)
Alignment : Split accross interleaves
Interleave, duration : 42 ms (1.00 video frame)
Interleave, preload duration : 500 ms

Скриншоты

[Профиль] [ЛС]
Кто просматривает тему:

Форум Тема Автор Размер
Фильмы 2011 года Всё, что было раньше, чем завтра / От вчера до завтра / All the Days before Tomorrow (Франсуа Домпьер / Francois Dompierre) [2007, США, комедия, мелодрама, роуд-муви, DVB-AVC] DVO (Kino Polska) TorrentFilm 869 MB
Фильмы 2015 года Всё, что мне осталось от тебя / Senden Bana Kalan (Абдулла Огуз) [2015 г., драма, DVDRip-AVC] [DVO (Раим Закиров, Ирина Котова)] Bathory 1.46 GB
Фильмы 2015 года Всё, что мне осталось от тебя / Senden Bana Kalan (Абдуллах Огуз / Abdullah Oguz) [2015, Турция, Драма, WEBRip] DVO TorrentFilm 1.39 GB
Фильмы (HD DVD, Blu-ray и BDRemux) Все, что у меня есть / Freeheld (2015) BDRemux 1080p от KinoRay | L2, L1 Russian Mafia 12.93 GB
Фильмы 2009 года Всё, что я люблю / All That I Love / Wszystko, co kocham (Яцек Борцух / Jacek Borcuch) [2009, Польша, драма, мелодрама, DVDRip] DVO (Макс Коллапс и Анна Полевская (RealFake)) painkiller 1.37 GB
Разная литература Громаковский А.А. - 3 в 1. Все, что нужно для сдачи экзамена в ГИБДД (2016) PDF достали все 41 MB
Компьютерная литература (Программирование) Просто о сложном - Голышева А.В., Корнеев В.Н. - Excel 2007 "Без воды". Всё, что нужно для уверенной работы. [2008, DjVu, RUS] TorrentFilm 14 MB
Фильмы 2009 года Угрызения 3: Всё, что вы можете съесть / Eating Out: All You Can Eat (Гленн Гэйлорд) [2009, США, драма, мелодрама, комедия, DVDRip] DVO + Sub Rus TorrentFilm 698 MB
Показать сообщения:    

Текущее время: Сегодня 16:24

Часовой пояс: GMT



Вы не можете начинать темы
Вы не можете отвечать на сообщения
Вы не можете редактировать свои сообщения
Вы не можете удалять свои сообщения
Вы не можете голосовать в опросах
Вы не можете прикреплять файлы к сообщениям
Вы не можете скачивать файлы