Все, что у меня есть / Freeheld (2015) BDRemux 1080p от KinoRay | L2, L1

 
Автор Сообщение

Russian Mafia ®

Пол:

Стаж: 1 год 8 месяцев

Сообщений: 4247



Награды: 10 (Подробнее)

Top Releaser 5 (Количество: 1) Mega Seeder 3 (Количество: 1) Top Releaser 2 (Количество: 1)
Торрент-статистика

Создавать темы 31-Мар-2016 11:54

[Цитировать]

Название: Все, что у меня есть
Оригинальное название: Freeheld
Год выпуска: 2015
Жанр: Драма, мелодрама, биография
Режиссер: Питер Соллетт
В ролях: Джулианна Мур, Эллен Пейдж, Майкл Шеннон, Стив Карелл, Люк Граймс, Гэбриел Луна, Энтони ДеСандо, Скипп Саддат, Джош Чарльз, Кевин О’Рурк
О фильме: Сюжет картины расскажет реальную историю девушки по имени Стейси Эндри, работающей автомобильным механиком в Нью-Джерси, и ее подруги — полицейского детектива Лорел Хестер. Обе героини пытаются найти способ передать по наследованию полицейские льготы Хестер после того как выясняется, что она больна смертельным заболеванием…

Выпущено: США, Double Feature Films, Endgame Entertainment
Продолжительность: 01:43:20
Перевод: Любительский (многоголосый) группа “RecentFilms” + Любительская (одноголосая) Павел Морозов aka PashaUp
Субтитры: Aнглийские (2 вида)
Качество: Blu-Ray Remux (1080p)
Видео: MPEG-4 AVC, 15.1 Mбит/с, 1920x1080
Аудио: Русский (AC3, 2 ch, 256 Кбит/с),(AC3, 2 ch, 192 Кбит/с), английский (DTS, 6 ch, 1510 Кбит/с), (AC3, 2 ch, 192 Кбит/с)

Инфо-файл

D:Freeheld.2015.Bluray.1080p.DTS-HD.x264-Grym.mkv
General
Unique ID : 250981362925285100073033974460071916793 (0xBCD1409269DB14349811CEEC1F09B4F9)
Complete name : D:Freeheld.2015.Bluray.(1080p).KinoRay.mkv
Format : Matroska
Format version : Version 4 / Version 2
File size : 12.9 GiB
Duration : 1h 43mn
Overall bit rate mode : Variable
Overall bit rate : 17.9 Mbps
Encoded date : UTC 2016-03-31 09:03:08
Writing application : mkvmerge v8.8.0 ('Wind at my back') 32bit
Writing library : libebml v1.3.3 + libmatroska v1.4.4
DURATION : 01:43:20.064000000
NUMBER_OF_FRAMES : 193752
NUMBER_OF_BYTES : 198402048
_STATISTICS_WRITING_APP : mkvmerge v8.8.0 ('Wind at my back') 32bit
_STATISTICS_WRITING_DATE_UTC : 2016-03-31 09:03:08
_STATISTICS_TAGS : BPS DURATION NUMBER_OF_FRAMES NUMBER_OF_BYTES
Video #1
ID : 1
Format : AVC
Format/Info : Advanced Video Codec
Format profile : High@L4.1
Format settings, CABAC : Yes
Format settings, ReFrames : 4 frames
Codec ID : V_MPEG4/ISO/AVC
Duration : 1h 43mn
Bit rate mode : Variable
Bit rate : 15.1 Mbps
Maximum bit rate : 30.0 Mbps
Width : 1 920 pixels
Height : 1 080 pixels
Display aspect ratio : 16:9
Frame rate : 23.976 fps
Color space : YUV
Chroma subsampling : 4:2:0
Bit depth : 8 bits
Scan type : Progressive
Bits/(Pixel*Frame) : 0.304
Stream size : 10.9 GiB (84%)
Language : English
Audio #2
ID : 2
Format : AC-3
Format/Info : Audio Coding 3
Mode extension : CM (complete main)
Codec ID : A_AC3
Duration : 1h 43mn
Bit rate mode : Constant
Bit rate : 256 Kbps
Channel(s) : 2 channels
Channel positions : Front: L R
Sampling rate : 48.0 KHz
Bit depth : 16 bits
Compression mode : Lossy
Stream size : 189 MiB (1%)
Title : Русский L2
Language : Russian
Audio #3
ID : 3
Format : AC-3
Format/Info : Audio Coding 3
Mode extension : CM (complete main)
Codec ID : A_AC3
Duration : 1h 43mn
Bit rate mode : Constant
Bit rate : 192 Kbps
Channel(s) : 2 channels
Channel positions : Front: L R
Sampling rate : 48.0 KHz
Bit depth : 16 bits
Compression mode : Lossy
Stream size : 142 MiB (1%)
Title : Русский L1
Language : Russian
Audio #4
ID : 4
Format : DTS
Format/Info : Digital Theater Systems
Format profile : MA / Core
Codec ID : A_DTS
Duration : 1h 43mn
Bit rate mode : Variable
Bit rate : 1 789 Kbps / 1 510 Kbps
Channel(s) : 6 channels
Channel positions : Front: L C R, Side: L R, LFE
Sampling rate : 48.0 KHz
Bit depth : 24 bits
Compression mode : Lossless / Lossy
Title : Aнглийский DTS
Language : English
Audio #5
ID : 5
Format : AC-3
Format/Info : Audio Coding 3
Mode extension : CM (complete main)
Codec ID : A_AC3
Duration : 1h 43mn
Bit rate mode : Constant
Bit rate : 192 Kbps
Channel(s) : 2 channels
Channel positions : Front: L R
Sampling rate : 48.0 KHz
Bit depth : 16 bits
Compression mode : Lossy
Stream size : 142 MiB (1%)
Title : Aнглийский AC3
Language : English
Text #6
ID : 6
Format : PGS
Muxing mode : zlib
Codec ID : S_HDMV/PGS
Codec ID/Info : The same subtitle format used on BDs/HD-DVDs
Language : English
Text #7
ID : 7
Format : PGS
Muxing mode : zlib
Codec ID : S_HDMV/PGS
Codec ID/Info : The same subtitle format used on BDs/HD-DVDs
Language : English
Text #8
ID : 8
Format : PGS
Muxing mode : zlib
Codec ID : S_HDMV/PGS
Codec ID/Info : The same subtitle format used on BDs/HD-DVDs
Language : Spanish

Скриншоты




Релиз-группа: Автор релиза:boss89
[Профиль] [ЛС]
Кто просматривает тему:

Форум Тема Автор Размер
Фильмы 2011 года Всё, что было раньше, чем завтра / От вчера до завтра / All the Days before Tomorrow (Франсуа Домпьер / Francois Dompierre) [2007, США, комедия, мелодрама, роуд-муви, DVB-AVC] DVO (Kino Polska) TorrentFilm 869 MB
Фильмы 2015 года Всё, что мне осталось от тебя / Senden Bana Kalan (Абдулла Огуз) [2015 г., драма, DVDRip-AVC] [DVO (Раим Закиров, Ирина Котова)] Bathory 1.46 GB
Фильмы 2015 года Всё, что мне осталось от тебя / Senden Bana Kalan (Абдуллах Огуз / Abdullah Oguz) [2015, Турция, Драма, WEBRip] DVO TorrentFilm 1.39 GB
Фильмы 2015 года Все, что у меня есть / Freeheld (2015) HDRip | D | iTunes BOSS 1.37 GB
Фильмы 2009 года Всё, что я люблю / All That I Love / Wszystko, co kocham (Яцек Борцух / Jacek Borcuch) [2009, Польша, драма, мелодрама, DVDRip] DVO (Макс Коллапс и Анна Полевская (RealFake)) painkiller 1.37 GB
Разная литература Громаковский А.А. - 3 в 1. Все, что нужно для сдачи экзамена в ГИБДД (2016) PDF достали все 41 MB
Компьютерная литература (Программирование) Просто о сложном - Голышева А.В., Корнеев В.Н. - Excel 2007 "Без воды". Всё, что нужно для уверенной работы. [2008, DjVu, RUS] TorrentFilm 14 MB
Фильмы 2009 года Угрызения 3: Всё, что вы можете съесть / Eating Out: All You Can Eat (Гленн Гэйлорд) [2009, США, драма, мелодрама, комедия, DVDRip] DVO + Sub Rus TorrentFilm 698 MB
Показать сообщения:    

Текущее время: Сегодня 02:17

Часовой пояс: GMT



Вы не можете начинать темы
Вы не можете отвечать на сообщения
Вы не можете редактировать свои сообщения
Вы не можете удалять свои сообщения
Вы не можете голосовать в опросах
Вы не можете прикреплять файлы к сообщениям
Вы не можете скачивать файлы