Все о мужчинах (2016) BDRip-AVC от NNNB | Лицензия

 
Автор Сообщение

Russian Mafia ®

Пол:

Стаж: 1 год 8 месяцев

Сообщений: 4246



Награды: 10 (Подробнее)

Mega Seeder 4 (Количество: 1) Mega Seeder 3 (Количество: 1) За внесенный вклад в развитие сайта (Количество: 1)
Торрент-статистика

Создавать темы 15-Окт-2016 13:19

[Цитировать]

Все о мужчинах
Русское название: Все о мужчинах
Год выпуска: 2016
Жанр: комедия
Выпущено: Россия
Режиссер: Михаил Жерневский, Леонид Марголин
В ролях: Дмитрий Нагиев , Анна Хилькевич , Игорь Верник , Сергей Белоголовцев , Грант Тохатян , Владимир Епифанцев , Екатерина Скулкина , Елена Борщева , Виктор Степанян , Ян Цапник , Елена Валюшкина , Станислав Ширин
Перевод: Не требуется

Сюжет фильма:
Это история о том, какими разными могут быть мужчины. О том, что мужчины - это, в первую очередь, сложные решения и настоящие поступки. О том, в чем мужчины могут быть сильны, а в чем комичны. О том, за что их можно и нужно любить...

Качество: BDRip-AVC
Формат: AVC (библиотека кодирования x.264)
Контейнер (Расширение): MKV
Видео: 1024x428, 2200 Кбит/сек, 24 кадр/сек, 0,209 Бит/[Пиксели*Кадры]
Аудио: русский / AC3 / 5.1 / 48 kHz / 448 kbps
Навигация по главам(Чаптеры): есть
Продолжительность: 01:18:48Автор рипа: Сообщество:

MediaInfo

Format : Matroska
Format version : Version 2
File size : 1.46 GiB
Duration : 1 h 18 min
Overall bit rate : 2 649 kb/s
Movie name : Vse o muzhchinah.2016.BDRip-AVC.[denis100]
Encoded date : UTC 2016-10-15 09:26:01
Writing application : mkvmerge v5.8.0 ('No Sleep / Pillow') built on Sep 2 2012 15:37:04
Writing library : libebml v1.2.3 + libmatroska v1.3.0
Video
ID : 1
Format : AVC
Format/Info : Advanced Video Codec
Format profile : High@L4.1
Format settings, CABAC : Yes
Format settings, ReFrames : 11 frames
Codec ID : V_MPEG4/ISO/AVC
Duration : 1 h 18 min
Bit rate : 2 200 kb/s
Width : 1 024 pixels
Height : 428 pixels
Display aspect ratio : 2.40:1
Frame rate mode : Constant
Frame rate : 24.000 FPS
Color space : YUV
Chroma subsampling : 4:2:0
Bit depth : 8 bits
Scan type : Progressive
Bits/(Pixel*Frame) : 0.209
Stream size : 1.18 GiB (81%)
Title : Vse o muzhchinah.2016.BDRip-AVC.[denis100]
Writing library : x264 core 148 r2721 72d53ab
Encoding settings : cabac=1 / ref=11 / deblock=1:-3:-3 / analyse=0x3:0x133 / me=umh / subme=11 / psy=1 / psy_rd=1.00:0.05 / mixed_ref=1 / me_range=32 / chroma_me=1 / trellis=2 / 8x8dct=1 / cqm=0 / deadzone=21,11 / fast_pskip=0 / chroma_qp_offset=-3 / threads=6 / lookahead_threads=1 / sliced_threads=0 / nr=0 / decimate=1 / interlaced=0 / bluray_compat=0 / constrained_intra=0 / bframes=12 / b_pyramid=2 / b_adapt=2 / b_bias=0 / direct=3 / weightb=1 / open_gop=0 / weightp=2 / keyint=250 / keyint_min=24 / scenecut=40 / intra_refresh=0 / rc=2pass / mbtree=0 / bitrate=2200 / ratetol=1.0 / qcomp=0.60 / qpmin=0 / qpmax=69 / qpstep=4 / cplxblur=20.0 / qblur=0.5 / ip_ratio=1.40 / pb_ratio=1.30 / aq=1:0.95
Language : English
Default : Yes
Forced : No
Audio
ID : 2
Format : AC-3
Format/Info : Audio Coding 3
Mode extension : CM (complete main)
Format settings, Endianness : Big
Codec ID : A_AC3
Duration : 1 h 18 min
Bit rate mode : Constant
Bit rate : 448 kb/s
Channel(s) : 6 channels
Channel positions : Front: L C R, Side: L R, LFE
Sampling rate : 48.0 kHz
Frame rate : 31.250 FPS (1536 spf)
Compression mode : Lossy
Stream size : 253 MiB (17%)
Language : Russian
Default : Yes
Forced : No
Menu
00:00:00.000 : en:Chapter 01
00:03:48.708 : en:Chapter 02
00:10:43.541 : en:Chapter 03
00:21:04.541 : en:Chapter 04
00:33:38.416 : en:Chapter 05
00:41:32.041 : en:Chapter 06
00:52:15.083 : en:Chapter 07
01:00:16.625 : en:Chapter 08
01:09:03.000 : en:Chapter 09

x264

x264 [info]: frame I:949 Avg QP:14.52 size: 80626
x264 [info]: frame P:26633 Avg QP:17.05 size: 24578
x264 [info]: frame B:85909 Avg QP:19.62 size: 6620

Скриншоты

[Профиль] [ЛС]
Показать сообщения:    

Текущее время: Сегодня 22:35

Часовой пояс: GMT



Вы не можете начинать темы
Вы не можете отвечать на сообщения
Вы не можете редактировать свои сообщения
Вы не можете удалять свои сообщения
Вы не можете голосовать в опросах
Вы не можете прикреплять файлы к сообщениям
Вы не можете скачивать файлы