Все или ничего / High Life (Гари Йэтс / Gary Yates) [2009, Канада, комедия, криминал, HDRip] MVO

 
Автор Сообщение

TorrentFilm ®

Пол:

Стаж: 2 года

Сообщений: 7741



Награды: Нет

Торрент-статистика

Создавать темы 05-Ноя-2015 00:09

[Цитировать]

Все или ничего / High Life
Страна: Канада
Жанр: комедия, криминал
Год выпуска: 2009
Продолжительность: 01:18:46
Перевод: Профессиональный (многоголосый закадровый)
Cубтитры: нет

Режиссер: Гари Йэтс / Gary Yates
В ролях: Тимоти Олифант, Стефен Эрик Макинтайр, Россиф Сазерленд, Джо Андерсон, Майк Белл, Сара Констибл, Аарон Хьюз, Сьюзэн Келсо
Описание: История банды мелких уголовных преступников-наркоманов середины 80-х годов. Дик и его друзья Донни и Бург вечно бывали в переделках за что и попадали в тюрьму. В недолгих промежутках времени между арестами они надеются на следующий «хороший случай», который должен способствовать их беззаботной жизни. Но эта надежда так ни разу еще и не осуществилась. С недавних пор в банках появились банкоматы, что очень радует троих друзей, которым необходимо получить быстро большое количество денег. Когда, на консультации по лечению от наркологической зависимости, Дик знакомится с Билли, криминальная четверка сформирована полностью. По хорошо продуманному плану они хотят сразу облегчить содержание 3-х банкоматов. Все было очень просто но тут появляется кассир банка, которая меняет планы неудачников.
Качество видео: HDRip
Формат видео: AVI
Видео: 656x368 (1.78:1), 23.976 fps, XviD build 73 ~1179 kbps avg, 0.20 bit/pixel
Аудио: 48 kHz, MPEG Layer 3, 2 ch, ~128.00 kbps avg

MediaInfo

Общее
Полное имя : H:\High.Life.2009.hdrip_[745]_[teko].avi
Формат : AVI
Формат/Информация : Audio Video Interleave
Размер файла : 742 Мбайт
Продолжительность : 1 ч. 18 м.
Общий поток : 1317 Кбит/сек
Программа кодирования : VirtualDubMod 1.5.10.3 | www.virtualdub-fr.org || (build 2550/release)
Библиотека кодирования : VirtualDubMod build 2550/release
Видео
Идентификатор : 0
Формат : MPEG-4 Visual
Профиль формата : Advanced Simple@L5
Параметр BVOP формата : 2
Параметр QPel формата : Нет
Параметр GMC формата : Без точки перехода
Параметр матрицы формата : Выборочная
Идентификатор кодека : XVID
Идентификатор кодека/Подсказка : XviD
Продолжительность : 1 ч. 18 м.
Битрейт : 1180 Кбит/сек
Ширина : 656 пикселей
Высота : 368 пикселей
Соотношение сторон : 16:9
Частота кадров : 23,976 кадра/сек
Цветовое пространство : YUV
Субдискретизация насыщенности : 4:2:0
Битовая глубина : 8 бит
Тип развёртки : Прогрессивная
Метод сжатия : С потерями
Бит/(Пиксели*Кадры) : 0.204
Размер потока : 665 Мбайт (90%)
Библиотека кодирования : XviD 73
Аудио
Идентификатор : 1
Формат : MPEG Audio
Версия формата : Version 1
Профиль формата : Layer 3
Идентификатор кодека : 55
Идентификатор кодека/Подсказка : MP3
Продолжительность : 1 ч. 18 м.
Вид битрейта : Постоянный
Битрейт : 128 Кбит/сек
Каналы : 2 канала
Частота : 48,0 КГц
Метод сжатия : С потерями
Размер потока : 72,1 Мбайт (10%)
Выравнивание : Соединение по промежуткам
Продолжительность промежутка : 42 мс. (1,00 видеокадр)
Время предзагрузки промежутка : 504 мс.
Библиотека кодирования : LAME3.98r
Настройки программы : -m s -V 4 -q 2 -lowpass 17 -b 128
Релиз группы:
--
[Профиль] [ЛС]

Создавать темы 12-Июн-2016 08:13 (спустя 7 месяцев 7 дней)

Топик был перенесен из форума Фильмы 2011 года в форум Фильмы 2009 года
Russian Mafia
 
Кто просматривает тему:

Показать сообщения:    

Текущее время: Сегодня 00:10

Часовой пояс: GMT



Вы не можете начинать темы
Вы не можете отвечать на сообщения
Вы не можете редактировать свои сообщения
Вы не можете удалять свои сообщения
Вы не можете голосовать в опросах
Вы не можете прикреплять файлы к сообщениям
Вы не можете скачивать файлы