Все еще Элис / Still Alice (2014) BDRip 1080p | Р, A | Лицезия

 
Автор Сообщение

достали все ®

Пол:

Стаж: 1 год 8 месяцев

Сообщений: 6545



Награды: 12 (Подробнее)

Mega Seeder 1 (Количество: 1) Mega Seeder 4 (Количество: 1) Mega Seeder 5 (Количество: 1)
Торрент-статистика

Создавать темы 26-Май-2015 09:19

[Цитировать]

Информация о фильме
Название: Все еще Элис
Оригинальное название: Still Alice
Год выпуска: 2014
Жанр: Драма
Выпущено: США, Backup Media, Big Indie Pictures, BSM Studio
Режиссер: Ричард Глацер, Уош Уэстмоленд
В ролях: Джулианна Мур, Алек Болдуин, Кристен Стюарт, Кейт Босворт, Шэйн МакРей, Хантер Пэрриш, Сет Гиллиам, Стефан Канкен, Дэниэл Джерролл, Куинси Тайлер Бернстайн, Максин Прескотт, Орла Кэссиди, Роза Арредондо, Зилла Глори, Калеб Фрюндлих, Шарлотта Робсон, Жан Бёрнс, Хосе Баэс, Эрин Майя Дарк, Такако Хэйвуд
О фильме: Элис Хаулэнд - профессор Колумбийского университета, книга которой "От нейронов до существительных" является краеугольным камнем в изучении лингвистики. В свои пятьдесят лет она добилась в жизни всего, о чем только мечтала: много лет она прожила в счастливом браке с любимым человеком, с которым воспитала троих прекрасных детей, и всегда занималась любимым делом, благодаря чему добилась блистательной карьеры. Однако, на одной из лекции, Элис заметила, что начала забывать простые слова. С каждым днем ситуация лишь ухудшается, из-за чего женщина начинает чувствовать жуткий дискомфорт. Через некоторое время Элис узнает, что стремительная потеря памяти является следствием ранней стадии неизлечимого заболевания, которое совсем скоро уничтожит ее...
Качество: BDRip (1080p)
Видео: MPEG-4 AVC, 13.1 Мбит/с, 1920x1038
Аудио: Русский (AC3, 6 ch, 384 Кбит/с, Профессиональный многоголосый [лицензия]), (AC3, 6 ch, 448 Кбит/с, авторский одноголосый закадровый [Вячеслав Котов]), английский (DTS, 6 ch, 1510 Кбит/с)
Размер: 11.16 ГБ
Продолжительность: 01:41:15
Перевод: Профессиональный многоголосый [лицензия], авторский одноголосый закадровый [Вячеслав Котов]
Субтитры: Русские, английские
Семпл

MI

Общее
Уникальный идентификатор : 215029073596280799095746678432112979976 (0xA1C517DA56019EF4A69255635F063008)
Полное имя : C:Still.Alice.2014.BDRip.1080p.mkv
Формат : Matroska
Версия формата : Version 2
Размер файла : 11,2 Гбайт
Продолжительность : 1 ч. 41 м.
Общий поток : 15,8 Мбит/сек
Дата кодирования : UTC 2015-05-26 03:06:21
Программа кодирования : mkvmerge v6.2.0 ('Promised Land') built on Apr 28 2013 12:22:01
Библиотека кодирования : libebml v1.3.0 + libmatroska v1.4.0
Видео
Идентификатор : 1
Формат : AVC
Формат/Информация : Advanced Video Codec
Профиль формата : High@L4.1
Параметр CABAC формата : Да
Параметр ReFrames формата : 4 кадра
Идентификатор кодека : V_MPEG4/ISO/AVC
Продолжительность : 1 ч. 41 м.
Битрейт : 13,1 Мбит/сек
Ширина : 1920 пикселей
Высота : 1038 пикселей
Соотношение сторон : 1,85:1
Режим частоты кадров : Постоянный
Частота кадров : 23,976 кадра/сек
Цветовое пространство : YUV
Субдискретизация насыщенности : 4:2:0
Битовая глубина : 8 бит
Тип развёртки : Прогрессивная
Бит/(Пиксели*Кадры) : 0.275
Размер потока : 9,28 Гбайт (83%)
Библиотека кодирования : x264 core 146 r2538 121396c
Настройки программы : cabac=1 / ref=4 / deblock=1:-3:-3 / analyse=0x3:0x113 / me=umh / subme=11 / psy=1 / psy_rd=1.00:0.00 / mixed_ref=1 / me_range=24 / chroma_me=1 / trellis=2 / 8x8dct=1 / cqm=0 / deadzone=21,11 / fast_pskip=0 / chroma_qp_offset=-2 / threads=12 / lookahead_threads=2 / sliced_threads=0 / nr=0 / decimate=1 / interlaced=0 / bluray_compat=0 / constrained_intra=0 / bframes=8 / b_pyramid=2 / b_adapt=2 / b_bias=0 / direct=1 / weightb=1 / open_gop=0 / weightp=2 / keyint=240 / keyint_min=23 / scenecut=40 / intra_refresh=0 / rc_lookahead=40 / rc=crf / mbtree=0 / crf=17.5 / qcomp=0.65 / qpmin=0 / qpmax=69 / qpstep=4 / vbv_maxrate=62500 / vbv_bufsize=78125 / crf_max=0.0 / nal_hrd=none / filler=0 / ip_ratio=1.30 / pb_ratio=1.20 / aq=1:0.70
Язык : English
Default : Да
Forced : Да
Аудио #1
Идентификатор : 2
Формат : AC-3
Формат/Информация : Audio Coding 3
Расширение режима : CM (complete main)
Параметр Endianness формата : Big
Идентификатор кодека : A_AC3
Продолжительность : 1 ч. 41 м.
Вид битрейта : Постоянный
Битрейт : 384 Кбит/сек
Каналы : 6 каналов
Расположение каналов : Front: L C R, Side: L R, LFE
Частота : 48,0 КГц
Битовая глубина : 16 бит
Метод сжатия : С потерями
Размер потока : 278 Мбайт (2%)
Заголовок : R5
Язык : Russian
Default : Да
Forced : Нет
Аудио #2
Идентификатор : 3
Формат : AC-3
Формат/Информация : Audio Coding 3
Расширение режима : CM (complete main)
Параметр Endianness формата : Big
Идентификатор кодека : A_AC3
Продолжительность : 1 ч. 41 м.
Вид битрейта : Постоянный
Битрейт : 448 Кбит/сек
Каналы : 6 каналов
Расположение каналов : Front: L C R, Side: L R, LFE
Частота : 48,0 КГц
Битовая глубина : 16 бит
Метод сжатия : С потерями
Размер потока : 324 Мбайт (3%)
Заголовок : Котов
Язык : Russian
Default : Нет
Forced : Нет
Аудио #3
Идентификатор : 4
Формат : DTS
Формат/Информация : Digital Theater Systems
Режим : 16
Параметр Endianness формата : Big
Идентификатор кодека : A_DTS
Продолжительность : 1 ч. 41 м.
Вид битрейта : Постоянный
Битрейт : 1509 Кбит/сек
Каналы : 6 каналов
Расположение каналов : Front: L C R, Side: L R, LFE
Частота : 48,0 КГц
Битовая глубина : 24 бит
Метод сжатия : С потерями
Размер потока : 1,07 Гбайт (10%)
Язык : English
Default : Нет
Forced : Нет
Текст #1
Идентификатор : 5
Формат : UTF-8
Идентификатор кодека : S_TEXT/UTF8
Идентификатор кодека/Информация : UTF-8 Plain Text
Язык : Russian
Default : Нет
Forced : Нет
Текст #2
Идентификатор : 6
Формат : UTF-8
Идентификатор кодека : S_TEXT/UTF8
Идентификатор кодека/Информация : UTF-8 Plain Text
Язык : English
Default : Нет
Forced : Нет
Меню
00:00:00.000 : en:00:00:00.000
00:04:40.697 : en:00:04:40.697
00:11:03.246 : en:00:11:03.246
00:15:37.895 : en:00:15:37.895
00:21:34.668 : en:00:21:34.668
00:28:51.063 : en:00:28:51.063
00:36:54.546 : en:00:36:54.546
00:43:54.841 : en:00:43:54.841
00:49:39.518 : en:00:49:39.518
00:58:20.247 : en:00:58:20.247
01:05:08.863 : en:01:05:08.863
01:11:36.000 : en:01:11:36.000
01:16:38.886 : en:01:16:38.886
01:20:02.172 : en:01:20:02.172
01:27:08.849 : en:01:27:08.849
01:30:08.945 : en:01:30:08.945

Скриншоты



[Профиль] [ЛС]
Кто просматривает тему:

Показать сообщения:    

Текущее время: Сегодня 14:34

Часовой пояс: GMT



Вы не можете начинать темы
Вы не можете отвечать на сообщения
Вы не можете редактировать свои сообщения
Вы не можете удалять свои сообщения
Вы не можете голосовать в опросах
Вы не можете прикреплять файлы к сообщениям
Вы не можете скачивать файлы