Все дело в шляпе (Лето в Муми-доле; В Муми-дол приходит осень) (Анатолий Аляшев) [1980-1983 гг, мультфильм, DVB]

 
Автор Сообщение

TorrentFilm ®

Пол:

Стаж: 2 года

Сообщений: 7741



Награды: Нет

Торрент-статистика

Создавать темы 01-Янв-2016 00:16

[Цитировать]

Все дело в шляпе
Жанр: мультфильм
Год выпуска: 1980-1983
Продолжительность: 00:15:21 + 00:19:58 + 00:16:06
Режиссёр: Анатолий Аляшев
Описание: По мотивам сказки финской писательницы Туве Янссон "Шляпа волшебника".
В мультипликационной трилогии рассказывается о веселых обитателях долины Муми-дол, в чьи лапы попадает странная шляпа. После нескольких смешных и грустных событий становится ясно, что она волшебная и умеет превращать вещи. А потом появляются новые участники и добавляют таинственности ...
1. "Всё дело в шляпе. 1 серия" 1980г. – однажды Муми-тролль и его друзья обнаруживают загадочную Черную Шляпу. Все, что в не попадает, изменяется до неузнаваемости. Из яиц появились белые пушистые тучки, а из самого Муми тролля вообще непонятно кто ...
2. "Лето в Муми-доле. 2 серия" 1981г. – в Долину Муми Троллей приходят странные гости — коротышки Тофсла и Вифсла с большим чемоданом. Очень скоро разносятся слухи, что в чемодане есть нечто, что принадлежит страшной Морре. Муми тролль и его друзья устраивают суд, чтоб решить, кому принадлежит чемодан, а Снусмумрик рассказывает легенду о Волшебнике, ищущем большой красный рубин ...
3. "В Муми-дол приходит осень. 3 серия" 1983г. – в Муми Дол незаметно подкралась осень. Внезапно пропадает сумка Муми мамы. Немедленно организовываются поиски. Тофсла и Вифсла, которые и слямзили эту сумку, не могут видеть Муми маму огорченной и решают вернуть ей сумку обратно. На радостях Муми-мама устраивает большой пир для всех жителей долины. Внезапно на пир является Волшебник и просит у Тофслы и Вифслы красный рубин ...
Доп. информация:

Релиз группы:
Трансляция спутникового канала: "Карусель"
Качество видео: DVB
Формат видео: MPEG-PS
Видео: MPEG2 Video, 720x576, 25 fps, 3500 kbps
Аудио: MPEG Audio, 2 сh, 48 kHz, 192 kbps

MediaInfoВсё дело в шляпе

D:\Муми Дол\1c. Все дело в шляпе (1980)_DVB by SLuMeP.mpg
General
Complete name : D:\Муми Дол\1c. Все дело в шляпе (1980)_DVB by SLuMeP.mpg
Format : MPEG-PS
File size : 438 MiB
Duration : 15mn 21s
Overall bit rate mode : Variable
Overall bit rate : 3 993 Kbps
Writing library : (c) 1998-2010 Womble Multimedia, Inc. / MPEG Video Wizard DVD 5.0.0.114 (01/2010) / Apr 20 2010
Video #224
ID : 224 (0xE0)
Format : MPEG Video
Format version : Version 2
Format profile : Main@Main
Format settings, BVOP : Yes
Format settings, Matrix : Custom
Duration : 15mn 21s
Bit rate mode : Variable
Bit rate : 3 722 Kbps
Maximum bit rate : 5 000 Kbps
Width : 720 pixels
Height : 576 pixels
Display aspect ratio : 4:3
Frame rate : 25.000 fps
Standard : PAL
Color space : YUV
Chroma subsampling : 4:2:0
Bit depth : 8 bits
Scan type : Interlaced
Scan order : Top Field First
Compression mode : Lossy
Bits/(Pixel*Frame) : 0.359
Stream size : 409 MiB (93%)
Writing library : (c) 1998-2010 Womble Multimedia, Inc. / MPEG Video Wizard DVD 5.0.0.114 (01/2010) / Apr 20 2010
Audio #192
ID : 192 (0xC0)
Format : MPEG Audio
Format version : Version 1
Format profile : Layer 2
Duration : 15mn 21s
Bit rate mode : Constant
Bit rate : 192 Kbps
Channel(s) : 2 channels
Sampling rate : 48.0 KHz
Compression mode : Lossy
Stream size : 21.1 MiB (5%)
Menu

Лето в Муми-доле

D:\Муми Дол\2c. Лето в Муми-доле (1981)_DVB by SLuMeP.mpg
General
Complete name : D:\Муми Дол\2c. Лето в Муми-доле (1981)_DVB by SLuMeP.mpg
Format : MPEG-PS
File size : 550 MiB
Duration : 19mn 58s
Overall bit rate mode : Variable
Overall bit rate : 3 846 Kbps
Writing library : (c) 1998-2010 Womble Multimedia, Inc. / MPEG Video Wizard DVD 5.0.0.114 (01/2010) / Apr 20 2010
Video #224
ID : 224 (0xE0)
Format : MPEG Video
Format version : Version 2
Format profile : Main@Main
Format settings, BVOP : Yes
Format settings, Matrix : Custom
Format settings, GOP : M=3, N=12
Duration : 19mn 58s
Bit rate mode : Variable
Bit rate : 3 578 Kbps
Maximum bit rate : 5 000 Kbps
Width : 720 pixels
Height : 576 pixels
Display aspect ratio : 4:3
Frame rate : 25.000 fps
Standard : PAL
Color space : YUV
Chroma subsampling : 4:2:0
Bit depth : 8 bits
Scan type : Interlaced
Scan order : Top Field First
Compression mode : Lossy
Bits/(Pixel*Frame) : 0.345
Stream size : 511 MiB (93%)
Writing library : (c) 1998-2010 Womble Multimedia, Inc. / MPEG Video Wizard DVD 5.0.0.114 (01/2010) / Apr 20 2010
Audio #192
ID : 192 (0xC0)
Format : MPEG Audio
Format version : Version 1
Format profile : Layer 2
Duration : 19mn 58s
Bit rate mode : Constant
Bit rate : 192 Kbps
Channel(s) : 2 channels
Sampling rate : 48.0 KHz
Compression mode : Lossy
Stream size : 27.4 MiB (5%)
Menu

В Муми-дол приходит осень

D:\Муми Дол\3c. В Муми-дол приходит осень (1983)_DVB by SLuMeP.mpg
General
Complete name : D:\Муми Дол\3c. В Муми-дол приходит осень (1983)_DVB by SLuMeP.mpg
Format : MPEG-PS
File size : 424 MiB
Duration : 16mn 6s
Overall bit rate mode : Variable
Overall bit rate : 3 679 Kbps
Writing library : (c) 1998-2010 Womble Multimedia, Inc. / MPEG Video Wizard DVD 5.0.0.114 (01/2010) / Apr 20 2010
Video #224
ID : 224 (0xE0)
Format : MPEG Video
Format version : Version 2
Format profile : Main@Main
Format settings, BVOP : Yes
Format settings, Matrix : Custom
Duration : 16mn 6s
Bit rate mode : Variable
Bit rate : 3 413 Kbps
Maximum bit rate : 5 000 Kbps
Width : 720 pixels
Height : 576 pixels
Display aspect ratio : 4:3
Frame rate : 25.000 fps
Standard : PAL
Color space : YUV
Chroma subsampling : 4:2:0
Bit depth : 8 bits
Scan type : Interlaced
Scan order : Top Field First
Compression mode : Lossy
Bits/(Pixel*Frame) : 0.329
Stream size : 393 MiB (93%)
Writing library : (c) 1998-2010 Womble Multimedia, Inc. / MPEG Video Wizard DVD 5.0.0.114 (01/2010) / Apr 20 2010
Audio #192
ID : 192 (0xC0)
Format : MPEG Audio
Format version : Version 1
Format profile : Layer 2
Duration : 16mn 6s
Bit rate mode : Constant
Bit rate : 192 Kbps
Channel(s) : 2 channels
Sampling rate : 48.0 KHz
Compression mode : Lossy
Delay relative to video : -80ms
Stream size : 22.1 MiB (5%)
Menu
[Профиль] [ЛС]
Кто просматривает тему:

Показать сообщения:    

Текущее время: Сегодня 22:22

Часовой пояс: GMT



Вы не можете начинать темы
Вы не можете отвечать на сообщения
Вы не можете редактировать свои сообщения
Вы не можете удалять свои сообщения
Вы не можете голосовать в опросах
Вы не можете прикреплять файлы к сообщениям
Вы не можете скачивать файлы