Все выходят / Tout le monde descend (Рено Бертран / Renaud Bertrand) [2010, Франция, Бельгия, комедия, DVB] Original (Fra)+ Sub (Rus)

 
Автор Сообщение

TorrentFilm ®

Пол:

Стаж: 2 года 1 месяц

Сообщений: 7773



Награды: Нет

Торрент-статистика

Создавать темы 20-Апр-2015 00:00

[Цитировать]

Все выходят
Tout le monde descend- Страна: Франция, Бельгия
Жанр: комедия
Год выпуска: 2010
Продолжительность: 01:30:33Перевод: Субтитры (русский перевод М. Кузиной, Éclair Group)
Cубтитры: русские, английские, французские, немецкие, нидерландские, румынские
Оригинальная аудиодорожка: французский
Режиссер: Рено Бертран / Renaud Bertrand
В ролях: Тьерри Новик / Thierry Neuvic (Pierre-Alain Kessler), Лубна Азабаль / Lubna Azabal (Leila El Fassi), Дафна Шолле / Daphné Chollet (Astrid Keller), Жюль-Анжело Бигарне / Jules-Angelo Bigarnet (Zachary Kessler), Тьен Чау / Thiên Châu (Mani / Pia), Венсан Мартен / Vincent Martin (André Leclerc), Паскуале Д'Инка / Pasquale D'Inca (Martial Bellami), Жан-Мишель Порталь / Jean-Michel Portal (Guillaume)
Описание: Работник престижной консалтинговой фирмы Пьер-Ален Кесслер вместе с двумя детьми-подростками ведет размеренную обеспеченную жизнь, но все рушится в один миг, когда руководство фирмы арестовывают по обвинению в мошенничестве и хищении. Пьер-Ален пробует искать высокооплачиваемую работу, но все попытки заканчиваются неудачей. Семья вынуждена переехать в рабочий пригород и начать все с нуля. Но от некоторых привычек трудно отказаться…
Доп. информация: Hot Bird (13.0°E) TV5MONDE Europe DVB-S
Номинация Festival de la fiction TV de la Rochelle 2011 на лучшую телевизионную комедию.

Качество видео: DVB
Формат видео: DVD Video
Видео: MPEG Video 2, 720x576@1024x576 (16:9), 25 fps, ~3221 kbps avg, 0.311 bit/pixel
Аудио: Французский (48 kHz, MPEG Audio 2, 2 ch, ~192.00 kbps avg)
Формат субтитров: prerendered (IDX+SUB)

DVDInfo, MediaInfo

Title: [apreder]Tout_le_monde_descend(2010)DVBSize: 2.20 Gb ( 2 308 996,00 KBytes ) - DVD-5Enabled regions: 1, 2, 3, 4, 5, 6, 7, 8
VTS_01 : Play Length: 01:30:33 Video: PAL 16:9 (720x576) VBR, Auto Letterboxed Audio: Francais (MPEG1, 2 ch) Subtitles: Russian English Francais Deutsch Nederlands Romanian
ОбщееПолное имя : E:\My Torrents 2\[apreder]Tout_le_monde_descend(2010)DVB\VIDEO_TS\VTS_01_1.VOBФормат : MPEG-PSРазмер файла : 1024 МбайтПродолжительность : 41 м.Режим общего битрейта : ПеременныйОбщий поток : 3482 Кбит/сек
ВидеоИдентификатор : 224 (0xE0)Формат : MPEG VideoВерсия формата : Version 2Профиль формата : Main@MainПараметр BVOP формата : ДаПараметр матрицы формата : ВыборочнаяПараметр GOP формата : M=4, N=12Format_Settings_PictureStructure : FrameПродолжительность : 41 м.Вид битрейта : ПеременныйБитрейт : 3221 Кбит/секШирина : 720 пикселейВысота : 576 пикселейСоотношение сторон : 16:9Частота кадров : 25,000 кадров/секСтандарт вещания : PALЦветовое пространство : YUVСубдискретизация насыщенности : 4:2:0Битовая глубина : 8 битТип развёртки : ЧересстрочнаяПорядок развёртки : Верхнее поле первоеМетод сжатия : С потерямиБит/(Пиксели*Кадры) : 0.311Временной код первого кадра : 00:00:00:00Оригинал временного кода : Group of pictures headerРазмер потока : 947 Мбайт (92%)
АудиоИдентификатор : 192 (0xC0)Формат : MPEG AudioВерсия формата : Version 1Профиль формата : Layer 2Режим : Joint stereoРасширение режима : Intensity Stereo + MS StereoПродолжительность : 41 м.Вид битрейта : ПостоянныйБитрейт : 192 Кбит/секКаналы : 2 каналаЧастота : 48,0 КГцМетод сжатия : С потерямиРазмер потока : 56,5 Мбайт (6%)
Текст #1Идентификатор : 189 (0xBD)-32 (0x20)Формат : RLEФормат/Информация : Run-length encodingРежим смешивания : DVD-VideoПродолжительность : 40 м.Задержка видео : 8 с. 920 мс.
Текст #2Идентификатор : 189 (0xBD)-33 (0x21)Формат : RLEФормат/Информация : Run-length encodingРежим смешивания : DVD-VideoПродолжительность : 40 м.Задержка видео : 9 с. 680 мс.
Текст #3Идентификатор : 189 (0xBD)-35 (0x23)Формат : RLEФормат/Информация : Run-length encodingРежим смешивания : DVD-VideoПродолжительность : 40 м.Задержка видео : 9 с. 680 мс.
Текст #4Идентификатор : 189 (0xBD)-36 (0x24)Формат : RLEФормат/Информация : Run-length encodingРежим смешивания : DVD-VideoПродолжительность : 40 м.Задержка видео : 9 с. 680 мс.
Текст #5Идентификатор : 189 (0xBD)-37 (0x25)Формат : RLEФормат/Информация : Run-length encodingРежим смешивания : DVD-VideoПродолжительность : 40 м.Задержка видео : 9 с. 680 мс.
Текст #6Идентификатор : 189 (0xBD)-34 (0x22)Формат : RLEФормат/Информация : Run-length encodingРежим смешивания : DVD-Video

Скриншот c названием фильма

Скриншоты


Резервные скриншоты


-[363]
[Профиль] [ЛС]

Создавать темы 06-Авг-2015 22:37 (спустя 3 месяца 16 дней)

Топик был перенесен из форума Фильмы до 2014 года в форум Фильмы до 2012 года
sergej644
 

Создавать темы 12-Июн-2016 07:54 (спустя 1 год 1 месяц)

Топик был перенесен из форума Фильмы 2011 года в форум Фильмы 2010 года
Russian Mafia
 
Кто просматривает тему:

Показать сообщения:    

Текущее время: Сегодня 10:56

Часовой пояс: GMT



Вы не можете начинать темы
Вы не можете отвечать на сообщения
Вы не можете редактировать свои сообщения
Вы не можете удалять свои сообщения
Вы не можете голосовать в опросах
Вы не можете прикреплять файлы к сообщениям
Вы не можете скачивать файлы