Все болельщицы умрут / All Cheerleaders Die (2013) BDRip 1080p | A, L1

 
Автор Сообщение

Russian Mafia ®

Пол:

Стаж: 1 год 8 месяцев

Сообщений: 4257



Награды: 10 (Подробнее)

Mega Seeder 5 (Количество: 1) Top Releaser 3 (Количество: 1) Top Releaser 5 (Количество: 1)
Торрент-статистика

Создавать темы 27-Мар-2016 19:20

[Цитировать]

Название: Все болельщицы умрут
Оригинальное название: All Cheerleaders Die
Год выхода: 2013
Страна: США
Студия: Modernciné
Продолжительность: 01:29:33
Жанр: ужасы, комедия, ...
Режиссер: Лаки МакКи, Крис Сивертсон
В ролях: Сидни Эллисон, Шарон Р. Арнольд, Шэй Астар, Сэм Бин, Nicholas Bloom, Nadia Boceski, Майкл Боуэн, Шэйн Бауэн, Брук Батлер, Amanda Grace Cooper, ...
Перевод:
Авторский (одноголосый, закадровый) Дольский Андрей Игоревич
Любительский (одноголосый, закадровый) Агапов Антон (datynet)
О фильме: Девушки из группы футбольных болельщиц погибают не по своей вине. Однако вскоре они мистическим образом воскресают и наводят ужас в школе, сея вокруг себя смерть в отместку за то, как с ними поступили…

Кодек: x264
Качество: BDRip 1080p
Видео: 1920x800, 10000 kbps, 23,976 fps
Аудио #1: AC-3, 6 ch, 448 kbps (Rus) - AVO Дольский Андрей Игоревич
Аудио #2: AC-3, 2 ch, 384 kbps (Rus) - VO Агапов Антон (datynet)
Аудио #3: AC-3, 6 ch, 640 kbps (Eng)
Субтитры: Английские

Дополнительная информация

За исходник спасибо - Diablo
Перевод Андрея Дольского доступен благодаря - tambov68

MI

x264 [info]: frame I:869 Avg QP:14.81 size:180602
x264 [info]: frame P:30033 Avg QP:16.82 size: 83431
x264 [info]: frame B:97926 Avg QP:18.99 size: 41379
x264 [info]: consecutive B-frames: 2.5% 4.8% 12.0% 14.4% 17.1% 44.3% 3.3% 0.5% 0.3% 0.4% 0.3%
Общее
Уникальный идентификатор : 237458443997477546761412201000987805154 (0xB2A4D53158FA4B74A97A44BB0E7445E2)
Полное имя : Все болельщицы умрут (All Cheerleaders Die) 2013 BDRip 1080p.mkv
Формат : Matroska
Версия формата : Version 2
Размер файла : 7,30 Гбайт
Продолжительность : 1 ч. 29 м.
Общий поток : 11,7 Мбит/сек
Дата кодирования : UTC 2016-03-27 15:52:30
Программа кодирования : mkvmerge v4.0.0 ('The Stars were mine') сборка от Jun 6 2010 16:18:42
Библиотека кодирования : libebml v1.0.0 + libmatroska v1.0.0
Видео
Идентификатор : 1
Формат : AVC
Формат/Информация : Advanced Video Codec
Профиль формата : High@L4.1
Параметр CABAC формата : Да
Параметр ReFrames формата : 5 кадров
Идентификатор кодека : V_MPEG4/ISO/AVC
Продолжительность : 1 ч. 29 м.
Битрейт : 10000 Кбит/сек
Ширина : 1920 пикселей
Высота : 800 пикселей
Соотношение сторон : 2,40:1
Режим частоты кадров : Постоянный
Частота кадров : 23,976 кадра/сек
Цветовое пространство : YUV
Субдискретизация насыщенности : 4:2:0
Битовая глубина : 8 бит
Тип развёртки : Прогрессивная
Бит/(Пиксели*Кадры) : 0.272
Размер потока : 6,11 Гбайт (84%)
Библиотека кодирования : x264 core 146 r2538 121396c
Настройки программы : cabac=1 / ref=5 / deblock=1:-3:-3 / analyse=0x3:0x133 / me=umh / subme=11 / psy=1 / psy_rd=1.00:0.00 / mixed_ref=1 / me_range=32 / chroma_me=1 / trellis=2 / 8x8dct=1 / cqm=0 / deadzone=21,11 / fast_pskip=0 / chroma_qp_offset=-2 / threads=12 / lookahead_threads=2 / sliced_threads=0 / nr=0 / decimate=0 / interlaced=0 / bluray_compat=0 / constrained_intra=0 / bframes=10 / b_pyramid=2 / b_adapt=2 / b_bias=0 / direct=3 / weightb=1 / open_gop=0 / weightp=2 / keyint=240 / keyint_min=23 / scenecut=40 / intra_refresh=0 / rc=2pass / mbtree=0 / bitrate=10000 / ratetol=1.0 / qcomp=0.60 / qpmin=0 / qpmax=69 / qpstep=4 / cplxblur=20.0 / qblur=0.5 / ip_ratio=1.40 / pb_ratio=1.30 / aq=1:0.80
Язык : English
Default : Нет
Forced : Нет
Аудио #1
Идентификатор : 2
Формат : AC-3
Формат/Информация : Audio Coding 3
Расширение режима : CM (complete main)
Параметр Endianness формата : Big
Идентификатор кодека : A_AC3
Продолжительность : 1 ч. 29 м.
Вид битрейта : Постоянный
Битрейт : 640 Кбит/сек
Каналы : 6 каналов
Расположение каналов : Front: L C R, Side: L R, LFE
Частота : 48,0 КГц
Метод сжатия : С потерями
Размер потока : 410 Мбайт (5%)
Заголовок : AVO Дольский Андрей Игоревич
Язык : Russian
Default : Нет
Forced : Нет
Аудио #2
Идентификатор : 3
Формат : AC-3
Формат/Информация : Audio Coding 3
Расширение режима : CM (complete main)
Параметр Endianness формата : Big
Идентификатор кодека : A_AC3
Продолжительность : 1 ч. 29 м.
Вид битрейта : Постоянный
Битрейт : 384 Кбит/сек
Каналы : 2 канала
Расположение каналов : Front: L R
Частота : 48,0 КГц
Метод сжатия : С потерями
Размер потока : 246 Мбайт (3%)
Заголовок : VO Агапов Антон (datynet)
Язык : Russian
Default : Нет
Forced : Нет
Аудио #3
Идентификатор : 4
Формат : AC-3
Формат/Информация : Audio Coding 3
Расширение режима : CM (complete main)
Параметр Endianness формата : Big
Идентификатор кодека : A_AC3
Продолжительность : 1 ч. 29 м.
Вид битрейта : Постоянный
Битрейт : 640 Кбит/сек
Каналы : 6 каналов
Расположение каналов : Front: L C R, Side: L R, LFE
Частота : 48,0 КГц
Метод сжатия : С потерями
Размер потока : 410 Мбайт (5%)
Язык : English
Default : Нет
Forced : Нет
Текст
Идентификатор : 5
Формат : UTF-8
Идентификатор кодека : S_TEXT/UTF8
Идентификатор кодека/Информация : UTF-8 Plain Text
Язык : English
Default : Нет
Forced : Нет

[Профиль] [ЛС]
Кто просматривает тему:

Показать сообщения:    

Текущее время: Сегодня 13:49

Часовой пояс: GMT



Вы не можете начинать темы
Вы не можете отвечать на сообщения
Вы не можете редактировать свои сообщения
Вы не можете удалять свои сообщения
Вы не можете голосовать в опросах
Вы не можете прикреплять файлы к сообщениям
Вы не можете скачивать файлы