Всероссийский детский центр "Орленок" (RTGHD) [2013, Документальный, HDTV 1080i]

 
Автор Сообщение

TorrentFilm ®

Пол:

Стаж: 2 года

Сообщений: 7741



Награды: Нет

Торрент-статистика

Создавать темы 01-Фев-2015 00:01

[Цитировать]

Всероссийский детский центр "Орленок"
Год выпуска: 2013
Страна: Россия
Жанр: Документальный
Продолжительность: 00:51:16
Перевод: Не требуется
Описание: Научиться кататься на серфдоске, выйти первый раз на сцену, попробовать себя в качестве моряка или журналиста - Всероссийский детский центр "Орленок" открывает десятки возможностей для детей и подростков, которые ежегодно приезжают на побережье Черного моря, на юг России. "Орленок" построили 1960 году. Он начинался с нескольких палаток и домиков, сейчас это живописная территория в 245 гектаров, 7 тематических лагерей, куда ежегодно приезжают 20 тысяч ребят-счастливчиков. Здесь есть музей и обсерватория, библиотека и телестудия, стадион и бассейн. Это небольшая страна, где хранят традиции и правила, созданные десятками поколениями "орлят". Здесь доброта, толерантность, лидерство, патриотизм, дружба и мир - не просто слова. Это стиль жизни. Ведущая Людмила Ширяева побывала в "стране детства" и услышала одно из самых главных признаний: "Орленок" подарил мне крылья!".
Доп. информация: IPTV Remux (запись потока без перекодирования).
Тип релиза: HDTV 1080i
Контейнер: TS
Видео: AVC H.264, 1920x1080i (16:9), 25 fps, 11.0 Mbps, 0.213 bits/pixel
Аудио: MPEG Audio, 2 channels, 192 kbps, 48KHz

MediaInfo

GeneralID : 1 (0x1)Complete name : Всероссийский детский центр Орленок.tsFormat : MPEG-TSFile size : 4.23 GiBDuration : 51mn 16sOverall bit rate mode : VariableOverall bit rate : 11.8 Mbps
VideoID : 601 (0x259)Menu ID : 1 (0x1)Format : AVCFormat/Info : Advanced Video CodecFormat profile : Main@L4.0Format settings, CABAC : YesFormat settings, ReFrames : 3 framesCodec ID : 27Duration : 51mn 16sBit rate : 11.0 MbpsWidth : 1 920 pixelsHeight : 1 080 pixelsDisplay aspect ratio : 16:9Frame rate : 25.000 fpsStandard : ComponentColor space : YUVChroma subsampling : 4:2:0Bit depth : 8 bitsScan type : InterlacedScan order : Top Field FirstBits/(Pixel*Frame) : 0.213Stream size : 3.95 GiB (93%)Color primaries : BT.709Transfer characteristics : BT.709Matrix coefficients : BT.709
AudioID : 602 (0x25A)Menu ID : 1 (0x1)Format : MPEG AudioFormat version : Version 1Format profile : Layer 2Codec ID : 3Duration : 51mn 16sBit rate mode : ConstantBit rate : 192 KbpsChannel(s) : 2 channelsSampling rate : 48.0 KHzCompression mode : LossyStream size : 70.4 MiB (2%)Language : Russian

Скриншоты

[Профиль] [ЛС]
Кто просматривает тему:

Показать сообщения:    

Текущее время: Сегодня 11:52

Часовой пояс: GMT



Вы не можете начинать темы
Вы не можете отвечать на сообщения
Вы не можете редактировать свои сообщения
Вы не можете удалять свои сообщения
Вы не можете голосовать в опросах
Вы не можете прикреплять файлы к сообщениям
Вы не можете скачивать файлы