Всемирная история, часть 1 / History of the World: Part I (Мэл Брукс) [1981 г., комедия, мюзикл, BDRip 720] [AVO (Михалев)] + [AVO (Иванов)] + [SUB]

 
Автор Сообщение

Bathory ®

Пол:

Стаж: 8 месяцев 29 дней

Сообщений: 169



Награды: 3 (Подробнее)

Girls (Количество: 1) За внесенный вклад в развитие сайта (Количество: 1) Друг (Количество: 1)
Торрент-статистика

Создавать темы 05-Июн-2016 12:08

[Цитировать]

Всемирная история, часть 1 / History of the World: Part I- Информация о фильме
Название: Всемирная история, часть 1
Оригинальное название: History of the World: Part I
Год выхода: 1981
Жанр: Комедия, мюзикл
Режиссер: Мэл Брукс
В ролях: Мэл Брукс, Дом ДеЛуис, Мэдлин Кан, Харви Кормен, Клорис Личмен, Рон Кэри, Грегори Хайнс, Памела Стивенсон, Шекки Грин, Сид Сизар
О фильме:
Сумасбродная комедия в стиле Монти Пайтона, которая стремительно переносит из каменного века во времена Римской империи, а затем и Французской революции, с шутками и приколами — от остроумных до вульгарных. Брукс находит смешное даже в пытках и истязаниях инквизиции — сам играет Торквемаду. Не «покупайтесь» только на финальную рекламу якобы второй части «Всемирной истории» — это такая же шутка, как и все остальное в картине. Уже не один отечественный видеоман сошел с ума, пытаясь отыскать несуществующее продолжение.

Страна: США
Студия: Brooksfilms
Продолжительность: 01:32:16
Перевод:
1. Авторский (одноголосый закадровый) Михалёв (поздний)
2. Авторский (одноголосый закадровый) Михалёв (ранний)
3. Авторский (одноголосый закадровый) Иванов
Файл
Кодек: AVC
Качество: BDRip 720p
Видео: 1280x544, 6689 kbps, 23,976 fps, 0,401 Bits/(Pixel*Frame)
Звук:
1. AC3, 48 kHz, 6 ch, 448 kbps - RUS [AVO] Михалёв (поздний)
2. AC3, 48 kHz, 2 ch, 192 kbps - RUS [AVO] Михалёв (ранний)
3. AC3, 48 kHz, 2 ch, 192 kbps - RUS [AVO] Иванов
4. AC3, 48 kHz, 6 ch, 448 kbps - ENG [Original]
Субтитры: Русские, английские

MI

General
Unique ID : 250613007462460487037623229281678270567 (0xBC8A4F3ED4FA8FBEAAB4A1FE3BE22067)
Complete name : E:\History.Of.The.World.1981.Rus.Eng.BDRip720p_by_Bathory.mkv
Format : Matroska
Format version : Version 4 / Version 2
File size : 5.24 GiB
Duration : 1h 32mn
Overall bit rate : 8 131 Kbps
Encoded date : UTC 2016-06-05 10:29:06
Writing application : mkvmerge v8.6.1 ('Flying') 64bit
Writing library : libebml v1.3.3 + libmatroska v1.4.4
DURATION : 01:27:24.823000000
NUMBER_OF_FRAMES : 1046
NUMBER_OF_BYTES : 40205
_STATISTICS_WRITING_APP : mkvmerge v8.6.1 ('Flying') 64bit
_STATISTICS_WRITING_DATE_UTC : 2016-06-05 10:29:06
_STATISTICS_TAGS : BPS DURATION NUMBER_OF_FRAMES NUMBER_OF_BYTES
Video
ID : 1
Format : AVC
Format/Info : Advanced Video Codec
Format profile : High@L4.1
Format settings, CABAC : Yes
Format settings, ReFrames : 9 frames
Codec ID : V_MPEG4/ISO/AVC
Duration : 1h 32mn
Bit rate : 6 689 Kbps
Width : 1 280 pixels
Height : 544 pixels
Display aspect ratio : 2.35:1
Frame rate mode : Constant
Frame rate : 23.976 fps
Color space : YUV
Chroma subsampling : 4:2:0
Bit depth : 8 bits
Scan type : Progressive
Bits/(Pixel*Frame) : 0.401
Stream size : 4.31 GiB (82%)
Writing library : x264 core 146 r2538 121396c
Encoding settings : cabac=1 / ref=9 / deblock=1:-3:-3 / analyse=0x3:0x133 / me=umh / subme=11 / psy=1 / psy_rd=1.00:0.10 / mixed_ref=1 / me_range=32 / chroma_me=1 / trellis=2 / 8x8dct=1 / cqm=0 / deadzone=21,11 / fast_pskip=0 / chroma_qp_offset=-3 / threads=12 / lookahead_threads=2 / sliced_threads=0 / nr=0 / decimate=1 / interlaced=0 / bluray_compat=0 / constrained_intra=0 / bframes=9 / b_pyramid=2 / b_adapt=2 / b_bias=0 / direct=3 / weightb=1 / open_gop=0 / weightp=2 / keyint=250 / keyint_min=23 / scenecut=40 / intra_refresh=0 / rc_lookahead=60 / rc=crf / mbtree=1 / crf=17.4 / qcomp=0.60 / qpmin=0 / qpmax=69 / qpstep=4 / ip_ratio=1.40 / aq=1:1.00
Default : Yes
Forced : No
Audio #1
ID : 2
Format : AC-3
Format/Info : Audio Coding 3
Mode extension : CM (complete main)
Format settings, Endianness : Big
Codec ID : A_AC3
Duration : 1h 32mn
Bit rate mode : Constant
Bit rate : 448 Kbps
Channel(s) : 6 channels
Channel positions : Front: L C R, Side: L R, LFE
Sampling rate : 48.0 KHz
Bit depth : 16 bits
Compression mode : Lossy
Stream size : 296 MiB (6%)
Title : Mikhaljov (new)
Language : Russian
Default : Yes
Forced : No
Audio #2
ID : 3
Format : AC-3
Format/Info : Audio Coding 3
Mode extension : CM (complete main)
Format settings, Endianness : Big
Codec ID : A_AC3
Duration : 1h 32mn
Bit rate mode : Constant
Bit rate : 192 Kbps
Channel(s) : 2 channels
Channel positions : Front: L R
Sampling rate : 48.0 KHz
Bit depth : 16 bits
Compression mode : Lossy
Stream size : 127 MiB (2%)
Title : Mikhaljov (old)
Language : Russian
Default : No
Forced : No
Audio #3
ID : 4
Format : AC-3
Format/Info : Audio Coding 3
Mode extension : CM (complete main)
Format settings, Endianness : Big
Codec ID : A_AC3
Duration : 1h 32mn
Bit rate mode : Constant
Bit rate : 192 Kbps
Channel(s) : 2 channels
Channel positions : Front: L R
Sampling rate : 48.0 KHz
Bit depth : 16 bits
Compression mode : Lossy
Stream size : 127 MiB (2%)
Title : Ivanov
Language : Russian
Default : No
Forced : No
Audio #4
ID : 5
Format : AC-3
Format/Info : Audio Coding 3
Mode extension : CM (complete main)
Format settings, Endianness : Big
Codec ID : A_AC3
Duration : 1h 32mn
Bit rate mode : Constant
Bit rate : 448 Kbps
Channel(s) : 6 channels
Channel positions : Front: L C R, Side: L R, LFE
Sampling rate : 48.0 KHz
Bit depth : 16 bits
Compression mode : Lossy
Stream size : 296 MiB (6%)
Language : English
Default : No
Forced : No
Text #1
ID : 6
Format : UTF-8
Codec ID : S_TEXT/UTF8
Codec ID/Info : UTF-8 Plain Text
Language : Russian
Default : Yes
Forced : No
Text #2
ID : 7
Format : UTF-8
Codec ID : S_TEXT/UTF8
Codec ID/Info : UTF-8 Plain Text
Language : English
Default : No
Forced : No

Скриншоты

Релиз от:
Автор рипа: Bathory
[Профиль] [ЛС]
Показать сообщения:    

Текущее время: Сегодня 16:58

Часовой пояс: GMT



Вы не можете начинать темы
Вы не можете отвечать на сообщения
Вы не можете редактировать свои сообщения
Вы не можете удалять свои сообщения
Вы не можете голосовать в опросах
Вы не можете прикреплять файлы к сообщениям
Вы не можете скачивать файлы