Всевидящее око / Eye in the Sky (2015) BDRip 1080p | L

 
Автор Сообщение

достали все ®

Пол:

Стаж: 1 год 8 месяцев

Сообщений: 6605



Награды: 12 (Подробнее)

Mega Releaser 3 (Количество: 1) Mega Releaser 2 (Количество: 1) Mega Seeder 4 (Количество: 1)
Торрент-статистика

Создавать темы 12-Июн-2016 21:46

[Цитировать]

Информация о фильме
Название: Всевидящее око
Оригинальное название: Eye in the Sky
Год выхода: 2015
Жанр: Триллер, драма, военный
Режиссер: Гэвин Худ
В ролях: Хелен Миррен, Файза Хассан, Файза Хассан, Алекс Гафлавент, Бабу Сизей, Кейт Ликориш, Габриэлла Пинто
О фильме: Хелен Миррен играет полковника Пауэлл, офицера армии Великобритании которая возглавляет тайную операцию с применением беспилотного аппарата, целью которой является поимка террористов в Кении. Тщательно спланированная миссия внезапно меняет приоритеты и вместо поимки...

Выпущено: Великобритания / Entertainment One, Raindog Films
Продолжительность: 01:42:45
Озвучивание: Любительское (многоголосное)
Примечание: Релиз без рекламы.
Файл
Формат: MKV
Качество: BDRip 1080p
Видео: MPEG-4 AVC, 7821 kb/s, 1920x800
Аудио: Russian: AC3, 192 kb/s (2 ch) / English: DTS, 1510 kb/s (6 ch)
Субтитры: English

MI

Общее
Уникальный идентификатор : 191455586465667658454722283148888165907 (0x90090133FB9A20E79130AD93EA52CE13)
Полное имя : D:загрузкиEye.in.the.Sky.MVO.2015.BluRay.1080p.mkv
Формат : Matroska
Версия формата : Version 4 / Version 2
Размер файла : 6,81 Гбайт
Продолжительность : 1 ч. 42 м.
Общий поток : 9488 Кбит/сек
Дата кодирования : UTC 2016-06-12 19:10:07
Программа кодирования : mkvmerge v8.3.0 ('Over the Horizon') 64bit
Библиотека кодирования : libebml v1.3.1 + libmatroska v1.4.2
Видео
Идентификатор : 1
Формат : AVC
Формат/Информация : Advanced Video Codec
Профиль формата : High@L4.1
Параметр CABAC формата : Да
Параметр ReFrames формата : 5 кадров
Идентификатор кодека : V_MPEG4/ISO/AVC
Продолжительность : 1 ч. 42 м.
Битрейт : 7821 Кбит/сек
Ширина : 1920 пикселей
Высота : 800 пикселей
Соотношение сторон : 2,40:1
Режим частоты кадров : Постоянный
Частота кадров : 23,976 кадра/сек
Цветовое пространство : YUV
Субдискретизация насыщенности : 4:2:0
Битовая глубина : 8 бит
Тип развёртки : Прогрессивная
Бит/(Пиксели*Кадры) : 0.212
Размер потока : 5,45 Гбайт (80%)
Библиотека кодирования : x264 core 148 r2597 e86f3a1
Настройки программы : cabac=1 / ref=5 / deblock=1:0:0 / analyse=0x3:0x113 / me=umh / subme=10 / psy=1 / psy_rd=1.05:0.10 / mixed_ref=1 / me_range=48 / chroma_me=1 / trellis=2 / 8x8dct=1 / cqm=0 / deadzone=21,11 / fast_pskip=0 / chroma_qp_offset=-2 / threads=12 / lookahead_threads=1 / sliced_threads=0 / nr=0 / decimate=1 / interlaced=0 / bluray_compat=0 / constrained_intra=0 / bframes=6 / b_pyramid=2 / b_adapt=2 / b_bias=0 / direct=3 / weightb=1 / open_gop=0 / weightp=2 / keyint=250 / keyint_min=23 / scenecut=40 / intra_refresh=0 / rc=2pass / mbtree=0 / bitrate=7821 / ratetol=2.0 / qcomp=0.70 / qpmin=0 / qpmax=69 / qpstep=4 / cplxblur=20.0 / qblur=0.5 / ip_ratio=1.40 / pb_ratio=1.30 / aq=2:1.00
Default : Да
Forced : Нет
Аудио #1
Идентификатор : 2
Формат : AC-3
Формат/Информация : Audio Coding 3
Расширение режима : CM (complete main)
Параметр Endianness формата : Big
Идентификатор кодека : A_AC3
Продолжительность : 1 ч. 42 м.
Вид битрейта : Постоянный
Битрейт : 192 Кбит/сек
Каналы : 2 канала
Расположение каналов : Front: L R
Частота : 48,0 КГц
Битовая глубина : 16 бит
Метод сжатия : С потерями
Размер потока : 141 Мбайт (2%)
Заголовок : L
Язык : Russian
Default : Да
Forced : Нет
Аудио #2
Идентификатор : 3
Формат : DTS
Формат/Информация : Digital Theater Systems
Режим : 16
Параметр Endianness формата : Big
Идентификатор кодека : A_DTS
Продолжительность : 1 ч. 42 м.
Вид битрейта : Постоянный
Битрейт : 1509 Кбит/сек
Каналы : 6 каналов
Расположение каналов : Front: L C R, Side: L R, LFE
Частота : 48,0 КГц
Битовая глубина : 24 бит
Метод сжатия : С потерями
Размер потока : 1,08 Гбайт (16%)
Язык : English
Default : Нет
Forced : Нет
Текст #1
Идентификатор : 4
Формат : UTF-8
Идентификатор кодека : S_TEXT/UTF8
Идентификатор кодека/Информация : UTF-8 Plain Text
Заголовок : Full
Язык : English
Default : Нет
Forced : Нет
Текст #2
Идентификатор : 5
Формат : UTF-8
Идентификатор кодека : S_TEXT/UTF8
Идентификатор кодека/Информация : UTF-8 Plain Text
Заголовок : SDH
Язык : English
Default : Нет
Forced : Нет
Меню
00:00:00.000 : en:00:00:00.000
00:05:23.823 : en:00:05:23.823
00:10:50.149 : en:00:10:50.149
00:15:12.787 : en:00:15:12.787
00:19:07.355 : en:00:19:07.355
00:25:23.230 : en:00:25:23.230
00:30:22.320 : en:00:30:22.320
00:36:55.630 : en:00:36:55.630
00:41:49.590 : en:00:41:49.590
00:46:48.556 : en:00:46:48.556
00:50:25.147 : en:00:50:25.147
00:55:24.279 : en:00:55:24.279
00:59:34.905 : en:00:59:34.905
01:03:25.010 : en:01:03:25.010
01:10:24.262 : en:01:10:24.262
01:16:51.148 : en:01:16:51.148
01:21:32.304 : en:01:21:32.304
01:26:15.003 : en:01:26:15.003
01:30:03.398 : en:01:30:03.398
01:33:42.033 : en:01:33:42.033

Скриншоты




[Профиль] [ЛС]
Показать сообщения:    

Текущее время: Сегодня 09:05

Часовой пояс: GMT



Вы не можете начинать темы
Вы не можете отвечать на сообщения
Вы не можете редактировать свои сообщения
Вы не можете удалять свои сообщения
Вы не можете голосовать в опросах
Вы не можете прикреплять файлы к сообщениям
Вы не можете скачивать файлы