Всадник без головы (1973) DVDRip

 
Автор Сообщение

Russian Mafia ®

Пол:

Стаж: 1 год 8 месяцев

Сообщений: 4247



Награды: 10 (Подробнее)

Top Releaser 3 (Количество: 1) Top Releaser 2 (Количество: 1) Mega Seeder 2 (Количество: 1)
Торрент-статистика

Создавать темы 09-Сен-2015 12:28

[Цитировать]

Страна: СССР, Куба
Производство: Ленфильм
Жанр: мелодрама, приключения, вестерн
Год выпуска: 1973
Продолжительность: 01:34:35
Перевод: не требуется
Оригинальная аудиодорожка: русский
Cубтитры: нет
Режиссер: Владимир Вайншток
В ролях:
Людмила Савельева, Олег Видов, Алехандро Луго, Эслинда Нуньес, Александр Милокостый, Иван Петров, Аарне Юкскюла, Энрике Сантиэстебан, Платон Лесли, Роландо Диас Рейес, Альфонсо Годинес, Виктор Беловольский, В.Веселкин, А.Владимиров...
Роли дублировали: Александр Белявский, Даниил Нетребин, Феликс Яворский, Алексей Золотницкий, Алексей Консовский
Описание:
В середине XIX века, после кровопролитной войны с Мексикой, американцы начали покорение огромной территории Техаса. У нового владельца гасиенды Каса-дель-Корво дела идут далеко не блестяще. К тому же происходит страшное событие: бесследно исчезает его сын.
Подозрение в убийстве падает на молодого мустангера Мориса Джеральда, в которого влюблена дочь хозяина. Когда кажется, что казнь неминуема, внезапно появляется главный свидетель преступления…- -Исходник: DVD5 R5
Тип релиза: DVDRip
Контейнер: AVI
Видео: 720x304 (2.35:1), 25 fps, XviD ~ 2003 kbps avg, 0.366 bit/pixel
Аудио: 48 kHz, Dolby AC3 2.0, 192 kbps

MediaInfo

Общее
Полное имя : Vsadnik.bez.golovy.1973.DVDRip__by_AVP Studio.avi
Формат : AVI
Формат/Информация : Audio Video Interleave
Размер файла : 1,46 Гбайт
Продолжительность : 1 ч. 34 м.
Общий поток : 2205 Кбит/сек
Программа кодирования : VirtualDubModRus 1.5.10.2 (build 2542/release)
Библиотека кодирования : VirtualDubMod build 2542/release
Видео
Идентификатор : 0
Формат : MPEG-4 Visual
Профиль формата : Advanced Simple@L5
Параметр BVOP формата : 1
Параметр QPel формата : Нет
Параметр GMC формата : Без точки перехода
Параметр матрицы формата : Выборочная
Идентификатор кодека : XVID
Идентификатор кодека/Подсказка : XviD
Продолжительность : 1 ч. 34 м.
Битрейт : 2003 Кбит/сек
Ширина : 720 пикселей
Высота : 304 пикселя
Соотношение сторон : 2,35:1
Частота кадров : 25,000 кадров/сек
Цветовое пространство : YUV
Субдискретизация насыщенности : 4:2:0
Битовая глубина : 8 бит
Тип развёртки : Прогрессивная
Метод сжатия : С потерями
Бит/(Пиксели*Кадры) : 0.366
Размер потока : 1,32 Гбайт (91%)
Библиотека кодирования : XviD 65
Аудио
Идентификатор : 1
Формат : AC-3
Формат/Информация : Audio Coding 3
Расширение режима : CM (complete main)
Идентификатор кодека : 2000
Продолжительность : 1 ч. 34 м.
Вид битрейта : Постоянный
Битрейт : 192 Кбит/сек
Каналы : 2 канала
Расположение каналов : Front: L R
Частота : 48,0 КГц
Битовая глубина : 16 бит
Метод сжатия : С потерями
Размер потока : 130 Мбайт (9%)
Выравнивание : Разделение по промежуткам
Продолжительность промежутка : 40 мс. (1,00 видеокадр)
Время предзагрузки промежутка : 500 мс

Скриншоты

[Профиль] [ЛС]
Показать сообщения:    

Текущее время: Сегодня 14:34

Часовой пояс: GMT



Вы не можете начинать темы
Вы не можете отвечать на сообщения
Вы не можете редактировать свои сообщения
Вы не можете удалять свои сообщения
Вы не можете голосовать в опросах
Вы не можете прикреплять файлы к сообщениям
Вы не можете скачивать файлы