Время собирать (Владимир Устюгов) [2014, Россия, мелодрама, HDTV 1080i]

 
Автор Сообщение

TorrentFilm ®

Пол:

Стаж: 2 года

Сообщений: 7741



Награды: Нет

Торрент-статистика

Создавать темы 31-Мар-2015 00:02

[Цитировать]

Время собирать
Страна: Россия
Студия: Кинокомпания Русское
Жанр: мелодрама
Год выпуска: 2014
Продолжительность: 01:32:29
Перевод: Не требуется
Cубтитры: нет
Оригинальная аудиодорожка: русский
Режиссёр: Владимир Устюгов
В ролях: Наталия Антонова, Алексей Макаров, Екатерина Волкова, Анастасия Акатова, Анастасия Стежко, Ульяна Урванцева, Марина Федункив, Анастасия Шалонько
Описание: Евгения работает учителем физкультуры в школе и одна воспитывает взрослую дочь Машу. Она души не чает в детях, трудится на износ, пытается растормошить вялых коллег и приобщить всех к здоровому образу жизни. Учителя посмеиваются над инициативной Женей, а школьники давно окрестили ее «чеканашкой». Усилий Жени не ценит и ее дочь. Старшеклассница Маша жаждет «красивой жизни» и осуждает мать-бессребреницу. Однажды в город приезжает миллионер, хозяин «газет, заводов, пароходов» Алексей. В юности у них с Женей был роман – та самая «первая любовь»..

Сэмпл: http://multi-up.com/1039529
Качество видео: HDTV 1080i
Формат видео: TS
Видео: AVC, 1920x1080, (16:9), 25 fps, 6.5 Mbps, 0.122 bit/pixel
Аудио: Русский, MP2, 48 kHz, 2 ch, 256 kbps

MediaInfo

General
ID : 1 (0x1)
Complete name : C:\Время собирать_2014_RU.ts
Format : MPEG-TS
File size : 4.61 GiB
Duration : 1h 32mn
Overall bit rate mode : Variable
Overall bit rate : 7 143 Kbps
Video
ID : 1000 (0x3E8)
Menu ID : 1 (0x1)
Format : AVC
Format/Info : Advanced Video Codec
Format profile : High@L4.0
Format settings, CABAC : Yes
Format settings, ReFrames : 4 frames
Format settings, GOP : M=4, N=32
Codec ID : 27
Duration : 1h 32mn
Bit rate : 6 531 Kbps
Width : 1 920 pixels
Height : 1 080 pixels
Display aspect ratio : 16:9
Frame rate : 25.000 fps
Color space : YUV
Chroma subsampling : 4:2:0
Bit depth : 8 bits
Scan type : MBAFF
Scan order : Top Field First
Bits/(Pixel*Frame) : 0.126
Stream size : 4.22 GiB (91%)
Audio
ID : 406 (0x196)
Menu ID : 1 (0x1)
Format : MPEG Audio
Format version : Version 1
Format profile : Layer 2
Codec ID : 3
Duration : 1h 32mn
Bit rate mode : Constant
Bit rate : 256 Kbps
Channel(s) : 2 channels
Sampling rate : 48.0 KHz
Compression mode : Lossy
Stream size : 169 MiB (4%)
Language : English

Скриншот c названием фильма

Скриншоты

[Профиль] [ЛС]
Показать сообщения:    

Текущее время: Сегодня 18:54

Часовой пояс: GMT



Вы не можете начинать темы
Вы не можете отвечать на сообщения
Вы не можете редактировать свои сообщения
Вы не можете удалять свои сообщения
Вы не можете голосовать в опросах
Вы не можете прикреплять файлы к сообщениям
Вы не можете скачивать файлы