Время собирать (Владимир Устюгов) [2014, Россия, Мелодрама, HDTV 1080i]

 
Автор Сообщение

TorrentFilm ®

Пол:

Стаж: 2 года

Сообщений: 7741



Награды: Нет

Торрент-статистика

Создавать темы 17-Дек-2014 02:15

[Цитировать]

Время собирать
Год выпуска: 2014
Производство: Кинокомпания Русское
Жанр: Мелодрама
Продолжительность: ~01:33:31
Субтитры: нет
Режиссёр: Владимир Устюгов
В ролях: Наталия Антонова, Алексей Макаров, Екатерина Волкова, Анастасия Акатова, Анастасия Стежко, Ульяна Урванцева, Марина Федункив, Анастасия Шалонько
Описание: Евгения работает учителем физкультуры в школе и одна воспитывает взрослую дочь Машу. Она души не чает в детях, трудится на износ, пытается растормошить вялых коллег и приобщить всех к здоровому образу жизни. Учителя посмеиваются над инициативной Женей, а школьники давно окрестили ее «чеканашкой». Усилий Жени не ценит и ее дочь. Старшеклассница Маша жаждет «красивой жизни» и осуждает мать-бессребреницу. Однажды в город приезжает миллионер, хозяин «газет, заводов, пароходов» Алексей. В юности у них с Женей был роман – та самая «первая любовь»..


Качество: HDTV 1080i
Контейнер: TS
Видео: MPEG4 Video (H264) 1920x1080, ~ 7940 Кбит/сек, 25.00fps 0.153 bit/pixel
Аудио: MP2, 2 ch, 48,0 КГц, 256 Кбит/с
Сторонней рекламы нет!

MediaInfo

ОбщееИдентификатор : 1 (0x1)Полное имя : F:\Фильмы торренты\Vremya.sobirat.2014.HDTV.(1080i).MediaClub.tsФормат : MPEG-TSРазмер файла : 5,56 ГбайтПродолжительность : 1 ч. 32 м.Режим общего битрейта : ПеременныйОбщий поток : 8624 Кбит/сек
ВидеоИдентификатор : 1000 (0x3E8)Идентификатор меню : 1 (0x1)Формат : AVCФормат/Информация : Advanced Video CodecПрофиль формата : High@L4.0Параметр CABAC формата : ДаПараметр ReFrames формата : 4 кадраПараметр GOP формата : M=4, N=32Идентификатор кодека : 27Продолжительность : 1 ч. 32 м.Битрейт : 7940 Кбит/секШирина : 1920 пикселейВысота : 1080 пикселейСоотношение сторон : 16:9Частота кадров : 25,000 кадров/секЦветовое пространство : YUVСубдискретизация насыщенности : 4:2:0Битовая глубина : 8 битТип развёртки : MBAFFБит/(Пиксели*Кадры) : 0.153Размер потока : 5,12 Гбайт (92%)
АудиоИдентификатор : 1101 (0x44D)Идентификатор меню : 1 (0x1)Формат : MPEG AudioВерсия формата : Version 1Профиль формата : Layer 2Идентификатор кодека : 3Продолжительность : 1 ч. 32 м.Вид битрейта : ПостоянныйБитрейт : 256 Кбит/секКаналы : 2 каналаЧастота : 48,0 КГцМетод сжатия : С потерямиРазмер потока : 169 Мбайт (3%)Язык
Раздача группы:
Отдельное спасибо nikolspup за предоставление материала.

Скриншот c названием фильма

Скриншоты

[Профиль] [ЛС]
Показать сообщения:    

Текущее время: Сегодня 12:12

Часовой пояс: GMT



Вы не можете начинать темы
Вы не можете отвечать на сообщения
Вы не можете редактировать свои сообщения
Вы не можете удалять свои сообщения
Вы не можете голосовать в опросах
Вы не можете прикреплять файлы к сообщениям
Вы не можете скачивать файлы