Время псов / Hunter's Prayer (Джонатан Мостоу) [2017 г., боевик, триллер, BDRip-AVC] [DUB (iTunes)]

 
Автор Сообщение

Bathory ®

Пол:

Стаж: 1 год 5 месяцев

Сообщений: 289



Награды: 3 (Подробнее)

Друг (Количество: 1) Girls (Количество: 1) За внесенный вклад в развитие сайта (Количество: 1)
Торрент-статистика

Создавать темы 29-Июл-2017 15:41

[Цитировать]

Время псов / Hunter's Prayer- Информация о фильме
Название: Время псов
Оригинальное название: Hunter's Prayer
Год выхода: 2017
Жанр: боевик, триллер
Режиссер: Джонатан Мостоу
В ролях: Сэм Уортингтон, Одейя Раш, Мартин Компстон, Эудалд Фонт, Тина Мэскелл, Эбен Янг, Стефани Дули, Люси Джексон, Клаудия Тружильо, Кейт Добсон
О фильме:
За всю свою карьеру киллер-одиночка Стивен Лукас не сделал ни одной ошибки. Даже враги называли его «идеальной машиной для убийства». Но однажды он не смог нажать на курок. Теперь он и его бывшая жертва, девушка Элла с большими прекрасными глазами, скитаются по Европе, чтобы отомстить виновникам жестокого убийства её семьи.

Страна: США, Испания, Германия
Студия: Apollo Media, Elipsis Capital, FilmEngine
Продолжительность: 01:31:15
Перевод: Дубляж | iTunes
Файл
Кодек: AVC
Качество: BDRip-AVC |Исх. BDRemux 1080p |
Видео: 784x328, 1069 kbps, 23,976 fps, 0,173 Bits/(Pixel*Frame)
Звук: AAC, 48 kHz, 2 ch, 72 kbps
Субтитры: Нет

MI

Общее
Unique ID : 204608697210331216914608479298688903524 (0x99EE33A18F16BDA5842B918FF88FE964)
Complete name : E:\Hunters.Prayer.2017.BDRip-AVC.MegaPeer.mkv
Format : Matroska
Format version : Version 2
File size : 745 Мбайт
Duration : 1 ч. 31 м.
Overall bit rate : 1141 Кбит/сек
Encoded date : UTC 2017-07-29 15:30:24
Writing application : mkvmerge v14.0.0 ('Flow') 64bit
Writing library : libebml v1.3.4 + libmatroska v1.4.5
Видео
ID : 1
Format : AVC
Format/Info : Advanced Video Codec
Format profile : High@L4.1
Format settings, CABAC : Да
Format settings, ReFrames : 12 кадров
Codec ID : V_MPEG4/ISO/AVC
Duration : 1 ч. 31 м.
Bit rate : 1069 Кбит/сек
Width : 784 пикселя
Height : 328 пикселей
Display aspect ratio : 2,40:1
Frame rate mode : Постоянный
Frame rate : 23,976 (24000/1001) кадра/сек
Color space : YUV
Chroma subsampling : 4:2:0
Bit depth : 8 бит
Scan type : Прогрессивная
Bits/(Pixel*Frame) : 0.173
Stream size : 697 Мбайт (94%)
Writing library : x264 core 152 r2851 ba24899
Encoding settings : cabac=1 / ref=12 / deblock=1:-3:-2 / analyse=0x3:0x133 / me=umh / subme=11 / psy=1 / psy_rd=1.00:0.05 / mixed_ref=1 / me_range=32 / chroma_me=1 / trellis=2 / 8x8dct=1 / cqm=0 / deadzone=21,11 / fast_pskip=0 / chroma_qp_offset=-3 / threads=10 / lookahead_threads=2 / sliced_threads=0 / nr=0 / decimate=0 / interlaced=0 / bluray_compat=0 / constrained_intra=0 / bframes=16 / b_pyramid=2 / b_adapt=2 / b_bias=0 / direct=3 / weightb=1 / open_gop=0 / weightp=2 / keyint=240 / keyint_min=23 / scenecut=0 / intra_refresh=0 / rc_lookahead=60 / rc=2pass / mbtree=1 / bitrate=1069 / ratetol=1.0 / qcomp=0.60 / qpmin=0 / qpmax=51 / qpstep=4 / cplxblur=15.0 / qblur=0.5 / vbv_maxrate=50000 / vbv_bufsize=62500 / nal_hrd=none / filler=0 / ip_ratio=1.40 / aq=2:1.00
Default : Да
Forced : Нет
Аудио
ID : 2
Format : AAC
Format/Info : Advanced Audio Codec
Format profile : HE-AAC / LC
Codec ID : A_AAC
Duration : 1 ч. 31 м.
Bit rate : 72,0 Кбит/сек
Channel(s) : 2 канала
Channel positions : Front: L R
Sampling rate : 48,0 КГц / 24,0 КГц
Frame rate : 23,438 кадра/сек (1024 spf)
Compression mode : С потерями
Delay relative to video : 31 мс.
Stream size : 46,9 Мбайт (6%)
Language : Russian
Default : Да
Forced : Нет

Скриншоты

Релиз:
[Профиль] [ЛС]
Показать сообщения:    

Текущее время: Сегодня 17:33

Часовой пояс: GMT



Вы не можете начинать темы
Вы не можете отвечать на сообщения
Вы не можете редактировать свои сообщения
Вы не можете удалять свои сообщения
Вы не можете голосовать в опросах
Вы не можете прикреплять файлы к сообщениям
Вы не можете скачивать файлы