Время печали еще не пришло (Сергей Сельянов) [1995, Россия, комедия, фарс, DVD5] + Original Rus

 
Автор Сообщение

TorrentFilm ®

Пол:

Стаж: 2 года

Сообщений: 7741



Награды: Нет

Торрент-статистика

Создавать темы 02-Янв-2016 00:01

[Цитировать]

Время печали еще не пришло
Страна: Россия
Студия: "Ленфильм"
Жанр: комедия, фарс, ироническая притча
Год выпуска: 1995
Продолжительность: 01:33:31
Перевод: Не требуется
Cубтитры: нет
Оригинальная аудиодорожка: русский
Режиссер: Сергей Сельянов
В ролях: Петр Мамонов, Валерий Приемыхов, Марина Левтова, Михаил Светин, Сергей Паршин, Семен Стругачев, Юрис Стренга, Виктор Демент, Светлана Булыненкова, Александр Шевелев, Татьяна Журавлева
Описание: Герой этой картины, человек с редкой фамилией Иванов (Приемыхов) очень хорошо рисует тысячные ассигнации. С этого начинается картина. Затем сценаристы Михаил Коновальчук и Сергей Сельянов переносят зрителя в прошлое, когда Иванов еще был подростком и жил в деревне. Здесь фильм приобретает явно притчевый характер. В деревне дружили татарин, еврей, русский, немец и цыган, возле которых Иванов все время и ошивался. В один день в их глухой уголок приходит возмутитель вселенского спокойствия и изрекатель мудростей, полиглот и геодезист Мефодий (Мамонов). Его пребывание произвело на ребят неизгладимое впечатление, и исчез он также неожиданно, как и пришел, и вместе с ним исчезла любимая Ивановым девушка, которую он искал всю жизнь, а нашел под именем Соня через много лет в самолете, который ради нее угнал в Париж. Все они встретились в день, назначенный Ивановым через 20 лет в той же деревне, а Мефодий незримо присутствовал среди них в виде дерева, согласно индийской религии. Мне фильм понравился, несмотря на кажущееся отсутствие четкого сюжета. Оперирует он скорее на чувственном, подсознательном уровне ассоциативности, много говоря о русской душе, которую "умом не понять". Картина выгодно выделяется на фоне общей серости и тупости.
Награды и премии:
1995 — Кинотавр
Победитель в категориях:
Специальные призы российского конкурса — Сергей Сельянов
Бонусы: анонсы
Меню: есть, статичное, озвученное

Сэмпл: http://multi-up.com/805348
Тип релиза: DVD5
Контейнер: DVD-Video
Видео кодек: MPEG2
Аудио кодек: AC3
Видео: PAL 4:3 (720x576(0.557)) MPEG Video, 25,000 кадр/сек, 5778 Кбит/сек
Аудио: Russian (Dolby AC3, 6ch) 448 Кбит/сек, 48,0 КГц

Доп. информация

Дистрибьютор: "Союз Видео".

DVDInfo

Title:
Size: 4.33 Gb ( 4 543 246 KBytes ) - DVD-5
Enabled regions: 1, 2, 3, 4, 5, 6, 7, 8
VTS_01 :
Play Length: 00:00:13
Video: PAL 4:3 (720x576) VBR
Audio:
Russian (Dolby AC3, 6 ch)
VTS_02 :
Play Length: 00:00:15
Video: PAL 4:3 (720x576) VBR
Audio:
Russian (Dolby AC3, 2 ch)
VTS_03 :
Play Length: 00:00:34
Video: PAL 4:3 (720x576) VBR
Audio:
Russian (Dolby AC3, 2 ch)
VTS_04 :
Play Length: 00:02:04
Video: PAL 4:3 (720x576) VBR
Audio:
Russian (Dolby AC3, 2 ch)
VTS_05 :
Play Length: 00:01:06
Video: PAL 16:9 (720x576) VBR, Auto Letterboxed
Audio:
Russian (Dolby AC3, 2 ch)
VTS_06 :
Play Length: 01:33:31
Video: PAL 4:3 (720x576) VBR
Audio:
Russian (Dolby AC3, 6 ch)
Menu Video:
PAL 4:3 (720x576) VBR
Menu Subtitles:
Not specified
Menu English Language Unit :
Root Menu
Subpicture Menu
Audio Menu
Angle menu
Chapter (PTT) Menu

MediaInfo

Общее
Полное имя : D:\news\Время печали еще не пришло\VIDEO_TS\VTS_06_1.VOB
Формат : MPEG-PS
Размер файла : 1024 Мбайт
Продолжительность : 22 м.
Режим общего битрейта : Переменный
Общий поток : 6352 Кбит/сек
Видео
Идентификатор : 224 (0xE0)
Формат : MPEG Video
Версия формата : Version 2
Профиль формата : Main@Main
Параметр BVOP формата : Да
Параметр матрицы формата : По умолчанию
Параметр GOP формата : M=3, N=15
Продолжительность : 22 м.
Вид битрейта : Переменный
Битрейт : 5778 Кбит/сек
Максимальный битрейт : 9200 Кбит/сек
Ширина : 720 пикселей
Высота : 576 пикселей
Соотношение сторон : 4:3
Частота кадров : 25,000 кадров/сек
Стандарт вещания : PAL
Цветовое пространство : YUV
Субдискретизация насыщенности : 4:2:0
Битовая глубина : 8 бит
Тип развёртки : Чересстрочная
Порядок развёртки : Нижнее поле первое
Метод сжатия : С потерями
Бит/(Пиксели*Кадры) : 0.557
Размер потока : 931 Мбайт (91%)
Аудио
Идентификатор : 189 (0xBD)-128 (0x80)
Формат : AC-3
Формат/Информация : Audio Coding 3
Расширение режима : CM (complete main)
Параметр Endianness формата : Big
Режим смешивания : DVD-Video
Продолжительность : 22 м.
Вид битрейта : Постоянный
Битрейт : 448 Кбит/сек
Каналы : 6 каналов
Расположение каналов : Front: L C R, Side: L R, LFE
Частота : 48,0 КГц
Битовая глубина : 16 бит
Метод сжатия : С потерями
Задержка видео : -80 мс.
Размер потока : 72,2 Мбайт (7%)
Меню

Скриншоты меню

Скриншоты

[Профиль] [ЛС]
Показать сообщения:    

Текущее время: Сегодня 06:07

Часовой пояс: GMT



Вы не можете начинать темы
Вы не можете отвечать на сообщения
Вы не можете редактировать свои сообщения
Вы не можете удалять свои сообщения
Вы не можете голосовать в опросах
Вы не можете прикреплять файлы к сообщениям
Вы не можете скачивать файлы