Время молчания / Le temps du silence (Франк Аппредери / Franck Apprederis) [2010, Франция, драма, экранизация, DVB] Original (Fre) + Sub (rus)

 
Автор Сообщение

TorrentFilm ®

Пол:

Стаж: 2 года

Сообщений: 7741



Награды: Нет

Торрент-статистика

Создавать темы 03-Фев-2015 00:01

[Цитировать]

Время молчания
Le temps du silence- Страна: Франция
Жанр: драма, экранизация
Год выпуска: 2010
Продолжительность: 01:42:00
Перевод: Субтитры (перевод К.Семенюк, Éclair Group)
Cубтитры: русские
Оригинальная аудиодорожка: французский
Режиссер: Франк Аппредери / Franck AppréderisВ ролях: Лоик Корбери / Loïc Corbery (Manuel - 1945-46), Бернар Ле Кок / Bernard Le Coq (Manuel – 1992), Одри Марнэ / Audrey Marnay (Laurence), Барбара Кабрита / Barbara Cabrita (Lorène), Арно Аппредери / Arnaud Appréderis (Darriet), Сара Бьязини / Sarah Biasini (Julie), Лио / Lio (La chanteuse), Анн Луаре / Anne Loiret (Isabelle), Фредерик ван ден Дрейше / Frédéric van den Driessche (Aragon), Саша Бурдо / Sacha Bourdo (Albert)
Описание: Адаптация книги воспоминаний франко-испанского писателя Хорхе Семпруна / Jorge Semprún "L'écriture ou la vie" (1994).
В 1945 году после 18 месяцев, проведенных в Бухенвальде, Мануэль возвращается в Париж, где погружается в вынужденное молчание, не веря, что может найтись человек, имеющий силы и желание выслушать его историю…
Доп. информация: TV5MONDE DVB-S. На территории РФ возрастное ограничение 18+.
Участник Luchon Film Festival 2011.

Качество видео: DVB
Формат видео: MKV
Видео: MPEG Video 2, 704x576@1024x576 (16:9), 25 fps, ~2492 kbps avg, 0.246 bit/pixel
Аудио: Французский (MPEG Audio 2, 2 ch, 48 kHz, ~192.00 kbps avg)
Формат субтитров: hardsub (неотключаемые)

MediaInfo

ОбщееУникальный идентификатор : 241907941500584468900406015249688532480 (0xB5FDC65B6597721D926137A30B239600)Полное имя : E:\My Torrents 2\[apreder]Le_temps_du_silence(2010)DVB.mkvФормат : MatroskaВерсия формата : Version 2Размер файла : 1,95 ГбайтПродолжительность : 1 ч. 42 м.Режим общего битрейта : ПеременныйОбщий поток : 2739 Кбит/секДата кодирования : UTC 2015-02-02 17:00:24Программа кодирования : mkvmerge v7.5.0 ('Glass Culture') 64bit built on Jan 4 2015 16:48:44Библиотека кодирования : libebml v1.3.1 + libmatroska v1.4.2
ВидеоИдентификатор : 1Формат : MPEG VideoВерсия формата : Version 2Профиль формата : Main@MainПараметр BVOP формата : ДаПараметр матрицы формата : ВыборочнаяПараметр GOP формата : M=3, N=15Format_Settings_PictureStructure : FrameИдентификатор кодека : V_MPEG2Идентификатор кодека/Информация : MPEG 1 or 2 VideoПродолжительность : 1 ч. 42 м.Вид битрейта : ПеременныйБитрейт : 2492 Кбит/секШирина : 704 пикселяВысота : 576 пикселейСоотношение сторон : 16:9Режим частоты кадров : ПостоянныйЧастота кадров : 25,000 кадров/секСтандарт вещания : PALЦветовое пространство : YUVСубдискретизация насыщенности : 4:2:0Битовая глубина : 8 битТип развёртки : ЧересстрочнаяПорядок развёртки : Верхнее поле первоеМетод сжатия : С потерямиБит/(Пиксели*Кадры) : 0.246Временной код первого кадра : 00:00:00:00Оригинал временного кода : Group of pictures headerРазмер потока : 1,78 Гбайт (91%)Default : ДаForced : НетGop_OpenClosed_FirstFrame : Closed
АудиоИдентификатор : 2Формат : MPEG AudioВерсия формата : Version 1Профиль формата : Layer 2Идентификатор кодека : A_MPEG/L2Идентификатор кодека/Подсказка : MP2Продолжительность : 1 ч. 42 м.Вид битрейта : ПостоянныйБитрейт : 192 Кбит/секКаналы : 2 каналаЧастота : 48,0 КГцМетод сжатия : С потерямиРазмер потока : 140 Мбайт (7%)Язык : FrenchDefault : ДаForced : Нет

Скриншот c названием фильма

Скриншоты


Резервные скриншоты


-[2'093]
[Профиль] [ЛС]

Создавать темы 06-Авг-2015 22:47 (спустя 6 месяцев 3 дня)

Топик был перенесен из форума Фильмы до 2014 года в форум Фильмы до 2012 года
sergej644
 

Создавать темы 12-Июн-2016 07:54 (спустя 1 год 4 месяца)

Топик был перенесен из форума Фильмы 2011 года в форум Фильмы 2010 года
Russian Mafia
 
Показать сообщения:    

Текущее время: Сегодня 16:56

Часовой пояс: GMT



Вы не можете начинать темы
Вы не можете отвечать на сообщения
Вы не можете редактировать свои сообщения
Вы не можете удалять свои сообщения
Вы не можете голосовать в опросах
Вы не можете прикреплять файлы к сообщениям
Вы не можете скачивать файлы