Время для мечты / Zeit für Träume (Карл Казэс / Karl Kases) [2009, Германия, драма, TVRip-AVC] VO + Sub Rus + Original Ger

 
Автор Сообщение

TorrentFilm ®

Пол:

Стаж: 2 года

Сообщений: 7741



Награды: Нет

Торрент-статистика

Создавать темы 05-Ноя-2015 00:09

[Цитировать]

Время для мечты / Zeit für Träume
Страна: Германия
Жанр: драма
Год выпуска: 2009
Продолжительность: 01:26:54
Перевод: Одноголосый закадровый русский, поверх литовского перевода
Cубтитры: русские
Оригинальная аудиодорожка: немецкий
Режиссер: Карл Казэс / Karl Kases
В ролях: Анна Брендлер / Anne Brendler, Ханнес Енике / Hannes Jaenicke, Бруно Эйрон / Bruno Eyron, Дитмар Шенхер / Dietmar Schönherr, Лино Слишкович / Lino Sliskovic, Мария Бахманн / Maria Bachmann, Матиас Шойринг / Matthias Scheuring, Харди Штурм / Hardi Sturm, Кнут Андресен / Knut Andresen
Описание: Как поступить отцу, если сын хорошо окончил учебный год? Можно выполнить его желание. Так случилось и с Кристианом Иогансеном, когда его одиннадцатилетний сын попросил в подарок каникулы на острове, где живет его дедушка Иоганн Иогансен, с которым Кристиан не разговаривает много лет.
Дедушка очень рад известию о приезде внука, но, как назло, происходят неприятности: на острове намечается строительство аэродрома, которому мешает дом старого Иогансена. Молодая архитекторша Юлия отправляется убедить упрямого старика переселится, а в это время приезжают его сын и внук.
Сэмпл: http://multi-up.com/1073852
Качество видео: TVRip-AVC
Формат видео: MKV
Видео: AVC at 1531 Кбит/сек : 720 x 576 (1.363) at 25.000 fps
Аудио 1: AC-3 at 192 Кбит/сек Infos : 2 канала, 48,0 КГц Language (русский)
Аудио 2: MPEG Audio at 192 Кбит/сек : 2 канала, 48,0 КГц Language (немецкий)
Формат субтитров: softsub (SRT)
Доп. информация о субтитрах: Русские внешние (Juris)

MediaInfo

Общее
Уникальный идентификатор : 219046870138011709393449557061339725078 (0xA4CAE48434D80811A9DBCC2DF8103D16)
Полное имя : F:\С моей озвучкой\Время для мечты\Zeit_fur_Traume_2009_TVRip_russub (1).mkv
Формат : Matroska
Версия формата : Version 4 / Version 2
Размер файла : 1,19 Гбайт
Продолжительность : 1 ч. 26 м.
Общий поток : 1954 Кбит/сек
Дата кодирования : UTC 2015-11-01 20:18:47
Программа кодирования : mkvmerge v7.9.0 ('Birds') 64bit
Библиотека кодирования : libebml v1.3.1 + libmatroska v1.4.2
_STATISTICS_WRITING_APP : mkvmerge v7.9.0 ('Birds') 64bit
_STATISTICS_WRITING_DATE_UTC : 2015-11-01 20:18:47
_STATISTICS_TAGS : BPS DURATION NUMBER_OF_FRAMES NUMBER_OF_BYTES
DURATION : 01:26:52.864000000
NUMBER_OF_FRAMES : 162902
NUMBER_OF_BYTES : 125108736
Видео
Идентификатор : 1
Формат : AVC
Формат/Информация : Advanced Video Codec
Профиль формата : Main@L3.0
Параметр CABAC формата : Да
Параметр ReFrames формата : 4 кадра
Параметр GOP формата : M=4, N=24
Идентификатор кодека : V_MPEG4/ISO/AVC
Продолжительность : 1 ч. 26 м.
Битрейт : 1531 Кбит/сек
Ширина : 720 пикселей
Высота : 576 пикселей
Соотношение сторон : 4:3
Соотношение сторон в оригинале : 4:3
Режим частоты кадров : Постоянный
Частота кадров : 25,000 кадров/сек
Стандарт вещания : PAL
Цветовое пространство : YUV
Субдискретизация насыщенности : 4:2:0
Битовая глубина : 8 бит
Тип развёртки : Чересстрочная
Порядок развёртки : Верхнее поле первое
Бит/(Пиксели*Кадры) : 0.148
Размер потока : 952 Мбайт (78%)
Default : Да
Forced : Нет
Основные цвета : BT.601 PAL
Характеристики трансфера : BT.470 System B, BT.470 System G
Коэффициенты матрицы : BT.601
Аудио #1
Идентификатор : 2
Формат : AC-3
Формат/Информация : Audio Coding 3
Расширение режима : CM (complete main)
Параметр Endianness формата : Big
Идентификатор кодека : A_AC3
Продолжительность : 1 ч. 26 м.
Вид битрейта : Постоянный
Битрейт : 192 Кбит/сек
Каналы : 2 канала
Расположение каналов : Front: L R
Частота : 48,0 КГц
Битовая глубина : 16 бит
Метод сжатия : С потерями
Размер потока : 119 Мбайт (10%)
Язык : Russian
Default : Нет
Forced : Нет
Аудио #2
Идентификатор : 3
Формат : MPEG Audio
Версия формата : Version 1
Профиль формата : Layer 2
Идентификатор кодека : A_MPEG/L2
Идентификатор кодека/Подсказка : MP2
Продолжительность : 1 ч. 26 м.
Вид битрейта : Постоянный
Битрейт : 192 Кбит/сек
Каналы : 2 канала
Частота : 48,0 КГц
Метод сжатия : С потерями
Размер потока : 119 Мбайт (10%)
Язык : Swedish
Default : Нет
Forced : Нет

Скриншоты

[Профиль] [ЛС]

Создавать темы 12-Июн-2016 08:13 (спустя 7 месяцев 7 дней)

Топик был перенесен из форума Фильмы 2011 года в форум Фильмы 2009 года
Russian Mafia
 
Показать сообщения:    

Текущее время: Сегодня 06:08

Часовой пояс: GMT



Вы не можете начинать темы
Вы не можете отвечать на сообщения
Вы не можете редактировать свои сообщения
Вы не можете удалять свои сообщения
Вы не можете голосовать в опросах
Вы не можете прикреплять файлы к сообщениям
Вы не можете скачивать файлы