Время ведьм / Season of the Witch (2010) BDRip-AVC | 60 fps

 
Автор Сообщение

Russian Mafia ®

Пол:

Стаж: 1 год 8 месяцев

Сообщений: 4257



Награды: 10 (Подробнее)

Mega Seeder 2 (Количество: 1) Top Releaser 2 (Количество: 1) Top Releaser 3 (Количество: 1)
Торрент-статистика

Создавать темы 26-Сен-2015 07:21

[Цитировать]

-Название: Время ведьм
Оригинальное название: Season of the Witch
Год выпуска: 2010
Страна: США
Жанр: фэнтези, боевик, приключения
Продолжительность: 01:34:59
Перевод: Дубляж
Субтитры: английские (Eng), русские (Rus)-Режиссер: Доминик Сена / Dominic Sena-В ролях: Николас Кейдж (Behmen von Bleibruck), Рон Перлман (Felson), Стивен Кэмпбелл Мур (Debelzaq), Стивен Грэм (Hagamar), Ульрих Томсен (Johann Eckhart), Клер Фой (The Girl), Роберт Шиэн (Kay von Wollenbarth), Кристофер Ли (Cardinal D'Ambroise), Ребека Кеннеди (Peasant Turk Girl), Эндрю Хефлер (Jail Bailiff), Фернанда Дороги (Old Woman (Givaudon)), Кевин Риис (Dying Monk)-Описание:
XIV столетие. В Европе свирепствует чума. Виновницей смертоносной беды признают беззащитную девушку, подозревая ее в колдовстве. Умирающий кардинал просит рыцаря Бэймена доставить ведьму в далекое аббатство, где ее чары должны быть разрушены.
Шестеро верховых и повозка с железной клеткой, в которой заточена обвиняемая, отправляются в опасное путешествие. Скоро рыцари осознают, их миловидная спутница действительно не человек, а исчадие ада.-Рейтинг

imdb.com: 5.40 (71 778)
MPAA: PG-13 - Детям до 13 лет просмотр не желателен-Качество: BDRip-AVC / 60 fps
Формат: MKV
Видео кодек: AVC
Аудио кодек: AC3
Видео: AVC, 1024x576 (16:9), 5286 kbps, 59,940 fps, 0,150 bpp
Аудио: русский / AC3 / 5.1 / 48 kHz / 640 kbps / 16 bit
-

MI

General
Unique ID : 251521506977906188466296678425043916695 (0xBD3947BAD59510CDABA65A448CCBD797)
Complete name : E:КодировкаРаздачаВремя ведьм 60fps.mkv
Format : Matroska
Format version : Version 4 / Version 2
File size : 3.93 GiB
Duration : 1h 34mn
Overall bit rate : 5 918 Kbps
Encoded date : UTC 2015-09-26 06:20:01
Writing application : mkvmerge v7.0.0 ('Where We Going') 64bit built on Jun 9 2014 15:16:27
Writing library : libebml v1.3.0 + libmatroska v1.4.1
Video
ID : 1
Format : AVC
Format/Info : Advanced Video Codec
Format profile : High@L4.1
Format settings, CABAC : Yes
Format settings, ReFrames : 4 frames
Codec ID : V_MPEG4/ISO/AVC
Duration : 1h 34mn
Bit rate : 5 286 Kbps
Width : 1 024 pixels
Height : 576 pixels
Display aspect ratio : 16:9
Frame rate : 59.940 fps
Color space : YUV
Chroma subsampling : 4:2:0
Bit depth : 8 bits
Scan type : Progressive
Bits/(Pixel*Frame) : 0.150
Stream size : 3.42 GiB (87%)
Writing library : x264 core 146 r2538 121396c
Encoding settings : cabac=1 / ref=3 / deblock=1:0:0 / analyse=0x3:0x113 / me=umh / subme=9 / psy=1 / psy_rd=1.00:0.00 / mixed_ref=1 / me_range=24 / chroma_me=1 / trellis=2 / 8x8dct=1 / cqm=0 / deadzone=21,11 / fast_pskip=1 / chroma_qp_offset=-2 / threads=12 / lookahead_threads=3 / sliced_threads=0 / nr=0 / decimate=1 / interlaced=0 / bluray_compat=0 / constrained_intra=0 / bframes=16 / b_pyramid=2 / b_adapt=2 / b_bias=0 / direct=1 / weightb=1 / open_gop=0 / weightp=2 / keyint=250 / keyint_min=25 / scenecut=40 / intra_refresh=0 / rc=2pass / mbtree=0 / bitrate=5286 / ratetol=1.0 / qcomp=0.60 / qpmin=0 / qpmax=69 / qpstep=4 / cplxblur=20.0 / qblur=0.5 / ip_ratio=1.40 / pb_ratio=1.30 / aq=1:1.00
Language : English
Default : Yes
Forced : No
Audio
ID : 2
Format : AC-3
Format/Info : Audio Coding 3
Mode extension : CM (complete main)
Codec ID : A_AC3
Duration : 1h 34mn
Bit rate mode : Constant
Bit rate : 640 Kbps
Channel(s) : 6 channels
Channel positions : Front: L C R, Side: L R, LFE
Sampling rate : 48.0 KHz
Bit depth : 16 bits
Compression mode : Lossy
Stream size : 435 MiB (11%)
Title : Дубляж
Language : Russian
Default : Yes
Forced : No
Text #1
ID : 3
Format : UTF-8
Codec ID : S_TEXT/UTF8
Codec ID/Info : UTF-8 Plain Text
Title : Eng
Language : English
Default : No
Forced : No
Text #2
ID : 4
Format : UTF-8
Codec ID : S_TEXT/UTF8
Codec ID/Info : UTF-8 Plain Text
Title : Eng
Language : English
Default : No
Forced : No
Text #3
ID : 5
Format : UTF-8
Codec ID : S_TEXT/UTF8
Codec ID/Info : UTF-8 Plain Text
Title : Rus
Language : Russian
Default : Yes
Forced : No
Text #4
ID : 6
Format : UTF-8
Codec ID : S_TEXT/UTF8
Codec ID/Info : UTF-8 Plain Text
Title : Rus
Language : Russian
Default : No
Forced : No
Text #5
ID : 7
Format : UTF-8
Codec ID : S_TEXT/UTF8
Codec ID/Info : UTF-8 Plain Text
Title : Rus
Language : Russian
Default : No
Forced : No

Скриншоты

[Профиль] [ЛС]

Создавать темы 12-Июн-2016 07:53 (спустя 8 месяцев 16 дней)

Топик был перенесен из форума Фильмы 2011 года в форум Фильмы 2010 года
Russian Mafia
 
Показать сообщения:    

Текущее время: Сегодня 20:26

Часовой пояс: GMT



Вы не можете начинать темы
Вы не можете отвечать на сообщения
Вы не можете редактировать свои сообщения
Вы не можете удалять свои сообщения
Вы не можете голосовать в опросах
Вы не можете прикреплять файлы к сообщениям
Вы не можете скачивать файлы