Временные трудности (2017) WEB-DLRip

 
Author Message

BOSS ®

Gender:

Longevity: 5 years 3 months

Posts: 14233

Location: ODESSA



: 22 ()

Mega Releaser 4 (1) Top Seeder 5 (1) Top Seeder 2 (1)
Торрент-статистика

Post 13-Oct-2018 18:09

[Quote]

Информация о фильме
Название: Временные трудности
Год выхода: 2017
Жанр: Драма, Мелодрама
Режиссер: Михаил Расходников
В ролях: Иван Охлобыстин, Риналь Мухаметов, Виктория Соловьёва, Ян Цапник, Илья Рязанов, Ирина Пегова, Ирина Маликова, Николай Ковбас
О фильме:
У Саши Ковалёва была врожденная болезнь. Отец мальчика выбрал, как ему казалось, единственно правильный способ поставить сына на ноги — относиться к нему как к здоровому человеку. «Ты не больной — у тебя временные трудности». Поесть, одеться, спуститься и подняться по лестнице подъезда — каждый день у ребенка уходили часы на то, чтобы справиться с простыми бытовыми задачами. В школе — издевательства сверстников. И помощи ждать было не от кого. Мальчик справился с болезнью, но возненавидел отца. Окончив школу, Саша уехал из дома и прекратил всякое общение с отцом. За 15 лет он стал лучшим бизнес-консультантом страны, который вывел из кризиса сотни бизнесов. «У вас не кризис — у вас временные трудности» — говорил своим клиентам прошедший тяжелый путь становления Александр. Но однажды новый заказ дает ему неожиданную возможность поквитаться с отцом.

Страна: Россия
Студия: «Enjoy Movies»
Продолжительность: 01:23:25
Перевод: Не требуется
Субтитры: нет
Файл
Формат: avi
Качество: WEB-DLRip
Видео: XviD build 73, 720x304 (2.35:1), 24.000 fps, 2107 Kbps (0.401 bit/pixel)
Звук: 48.0 kHz, AC3, 5/1 ch, 384 kbps

MediaInfo

General
Complete name : D:RazdachiVremennye.Trudnosti.2017.XviD.WEB-DLRip.GeneralFilm.avi
Format : AVI
Format/Info : Audio Video Interleave
File size : 1.46 GiB
Duration : 1 h 23 min
Overall bit rate : 2 500 kb/s
Writing application : VirtualDubMod 1.5.10.3 | www.virtualdub-fr.org || (build 2550/release)
Writing library : VirtualDubMod build 2550/release
Video
ID : 0
Format : MPEG-4 Visual
Format profile : Advanced Simple@L5
Format settings, BVOP : 1
Format settings, QPel : No
Format settings, GMC : No warppoints
Format settings, Matrix : Custom
Codec ID : XVID
Codec ID/Hint : XviD
Duration : 1 h 23 min
Bit rate : 2 107 kb/s
Width : 720 pixels
Height : 304 pixels
Display aspect ratio : 2.35:1
Frame rate : 24.000 FPS
Color space : YUV
Chroma subsampling : 4:2:0
Bit depth : 8 bits
Scan type : Progressive
Compression mode : Lossy
Bits/(Pixel*Frame) : 0.401
Stream size : 1.23 GiB (84%)
Writing library : XviD 73
Audio
ID : 1
Format : AC-3
Format/Info : Audio Coding 3
Format settings, Endianness : Big
Codec ID : 2000
Duration : 1 h 23 min
Bit rate mode : Constant
Bit rate : 384 kb/s
Channel(s) : 6 channels
Channel positions : Front: L C R, Side: L R, LFE
Sampling rate : 48.0 kHz
Frame rate : 31.250 FPS (1536 SPF)
Bit depth : 16 bits
Compression mode : Lossy
Stream size : 229 MiB (15%)
Alignment : Split accross interleaves
Interleave, duration : 42 ms (1.00 video frame)
Interleave, preload duratio : 500 ms
Service kind : Complete Main

Скриншоты

[Profile] [PM]
Кто просматривает тему:

Forum Topic Author Size
Metal (Heavy Metal) Ария - Через все времена (Deluxe version) - 2014, MP3, 320 kbps sergej644 288 MB
Cборники 70х-80х-90х (Ретро) (POP) VA - Кумиры 80-х Имена на все времена - 2014, MP3, 128 kbps Magnat 697 MB
Cборники 70х-80х-90х (Ретро) (Pop)VA - Как Это Было... Хиты Времен СССР (2014) [MP3|256 кб/с] sergej644 753 MB
Rock, Metal (Rock) Машина времени - Антология (18СD)(Box Set 2004) - 1969 - 2004 [MP3, tracks, 320 kbps] sergej644 2.02 GB
Документальные HD BBC. Англия во времена Плантагенетов / The Plantagenets (Rosie Schellenberg / Рози Щеленберг, Jamie Simpson / Джими Симпсон, David Vincent /) [2014, Документальный, история, HDTVRip] TorrentFilm 4.29 GB
BBC BBC: Англия во времена Плантагенетов / The Plantagenets [серии 1-3 из 3] (Рози Щеленберг, Джими Симпсон, Дэвид Винсент) [2014 г., Документальный, история, HDTVRip 720p] skorpionN 4.29 GB
BBC BBC: Гении современного мира / Genius Of The Modern World [серии 1-3 из 3] (Rob Gowling) [2016 г., Документальный, история, исследования, HDTVRip-AVC 720p] skorpionN 5.42 GB
BBC BBC: Путешествие во времени. (Шкала времени) Стоунхендж / Time watch. Stonehenge (Дэвид Стюарт / David Stewart) [2009 г., Документальный, история, археология, исследования, HDTVRip 720p] skorpionN 1.27 GB
Display posts from previous:    

The time now is: Today 15:30

All times are GMT



You cannot post new topics in this forum
You cannot reply to topics in this forum
You cannot edit your posts in this forum
You cannot delete your posts in this forum
You cannot vote in polls in this forum
You cannot attach files in this forum
You cannot download files in this forum