Врата / The Gate (1987) BDRemux 1080р | P2, A

 
Автор Сообщение

Swager ®

Пол:

Стаж: 2 года 8 месяцев

Сообщений: 1583



Награды: 4 (Подробнее)

Top Releaser 2 (Количество: 1) За внесенный вклад в развитие сайта (Количество: 1) Mega Seeder 1 (Количество: 1)
Торрент-статистика

Создавать темы 19-Окт-2017 11:31

[Цитировать]

Информация о фильме
Название: Врата
Оригинальное название: The Gate
Год выхода: 1987
Жанр: ужасы, фэнтези
Режиссер: Тибор Такач
В ролях: Стивен Дорфф, Криста Дентон, Луис Трип, Келли Роуэн, Дженнифер Ирвин, Дебора Гровер, Скот Дентон, Ингрид Венингер, Шон Фаган, Линда Горансон
Описание: После выкорчевывания старого дерева на заднем дворе в земле обнаружилась большая дыра. Когда родители Глена и Ал уехали из дома на три дня, выяснилось, что эта дыра — врата из ада в наш мир, которыми не преминут воспользоваться древние демоны.

Страна: Канада, США
Продолжительность: 01:25:45
Перевод 1: Профессиональный (двухголосый закадровый)
Перевод 2: Авторский (одноголосый закадровый) Сергей Визгунов
Перевод 3: Авторский (одноголосый закадровый) Сергей Кузнецов
Перевод 4: Авторский (одноголосый закадровый) Василий Горчаков
Файл
Качество: BDRemux 1080р
Видео: MPEG-4 AVC / 24985 kbps / 1920x1080 / 23,976 fps / 16:9 / High Profile 4.1
Аудио 1: Russian AC3 / 2.0 / 48 kHz / 192 kbps / 16 bits |DVO|
Аудио 2: Russian AC3 / 2.0 / 48 kHz / 192 kbps / 16 bits |С. Визгунов|
Аудио 3: Russian AC3 / 2.0 / 48 kHz / 192 kbps / 16 bits |С. Кузнецов|
Аудио 4: Russian AC3 / 2.0 / 48 kHz / 192 kbps / 16 bits |В. Горчаков|
Аудио 5: English DTS-HD Master Audio / 2.0 / 48 kHz / 2097 kbps / 24-bit (DTS Core: 2.0 / 48 kHz / 1509 kbps / 24-bit) |original|

Скриншоты

MediaInfo

бщее
Уникальный идентификатор : 218114577527803436959566245865211943903 (0xA41756F120B14AAA9A151B6C5699DBDF)
Полное имя : Врата.1987.Blu-Ray.Remux.(1080p).mkv
Формат : Matroska
Версия формата : Version 4 / Version 2
Размер файла : 16,7 Гбайт
Продолжительность : 1 ч. 25 м.
Режим общего битрейта : Переменный
Общий поток : 27,9 Мбит/сек
Дата кодирования : UTC 2017-04-05 19:01:52
Программа кодирования : mkvmerge v10.0.0 ('To Drown In You') 64bit
Библиотека кодирования : libebml v1.3.4 + libmatroska v1.4.5
Attachments : poster.jpg
Видео
Идентификатор : 1
Формат : AVC
Формат/Информация : Advanced Video Codec
Профиль формата : High@L4.1
Параметр CABAC формата : Да
Параметр ReFrames формата : 4 кадра
Параметр GOP формата : M=3, N=24
Идентификатор кодека : V_MPEG4/ISO/AVC
Продолжительность : 1 ч. 25 м.
Вид битрейта : Переменный
Битрейт : 25,0 Мбит/сек
Максимальный битрейт : 35,0 Мбит/сек
Ширина : 1920 пикселей
Высота : 1080 пикселей
Соотношение сторон : 16:9
Режим частоты кадров : Постоянный
Частота кадров : 23,976 (24000/1001) кадра/сек
Стандарт вещания : NTSC
Цветовое пространство : YUV
Субдискретизация насыщенности : 4:2:0
Битовая глубина : 8 бит
Тип развёртки : Прогрессивная
Бит/(Пиксели*Кадры) : 0.503
Размер потока : 15,0 Гбайт (90%)
Default : Да
Forced : Нет
Цветовой диапазон : Limited
Основные цвета : BT.709
Характеристики трансфера : BT.709
Коэффициенты матрицы : BT.709
Аудио #1
Идентификатор : 2
Формат : AC-3
Формат/Информация : Audio Coding 3
Параметр Endianness формата : Big
Идентификатор кодека : A_AC3
Продолжительность : 1 ч. 25 м.
Вид битрейта : Постоянный
Битрейт : 192 Кбит/сек
Каналы : 2 канала
Расположение каналов : Front: L R
Частота : 48,0 КГц
Частота кадров : 31,250 кадров/сек (1536 spf)
Битовая глубина : 16 бит
Метод сжатия : С потерями
Размер потока : 118 Мбайт (1%)
Заголовок : DVO
Язык : Russian
Default : Да
Forced : Нет
Аудио #2
Идентификатор : 3
Формат : AC-3
Формат/Информация : Audio Coding 3
Параметр Endianness формата : Big
Идентификатор кодека : A_AC3
Продолжительность : 1 ч. 25 м.
Вид битрейта : Постоянный
Битрейт : 192 Кбит/сек
Каналы : 2 канала
Расположение каналов : Front: L R
Частота : 48,0 КГц
Частота кадров : 31,250 кадров/сек (1536 spf)
Битовая глубина : 16 бит
Метод сжатия : С потерями
Размер потока : 118 Мбайт (1%)
Заголовок : С. Визгунов
Язык : Russian
Default : Нет
Forced : Нет
Аудио #3
Идентификатор : 4
Формат : AC-3
Формат/Информация : Audio Coding 3
Параметр Endianness формата : Big
Идентификатор кодека : A_AC3
Продолжительность : 1 ч. 25 м.
Вид битрейта : Постоянный
Битрейт : 192 Кбит/сек
Каналы : 2 канала
Расположение каналов : Front: L R
Частота : 48,0 КГц
Частота кадров : 31,250 кадров/сек (1536 spf)
Битовая глубина : 16 бит
Метод сжатия : С потерями
Размер потока : 117 Мбайт (1%)
Заголовок : С. Кузнецов
Язык : Russian
Default : Нет
Forced : Нет
Аудио #4
Идентификатор : 5
Формат : AC-3
Формат/Информация : Audio Coding 3
Параметр Endianness формата : Big
Идентификатор кодека : A_AC3
Продолжительность : 1 ч. 25 м.
Вид битрейта : Постоянный
Битрейт : 192 Кбит/сек
Каналы : 2 канала
Расположение каналов : Front: L R
Частота : 48,0 КГц
Частота кадров : 31,250 кадров/сек (1536 spf)
Битовая глубина : 16 бит
Метод сжатия : С потерями
Размер потока : 118 Мбайт (1%)
Заголовок : В. Горчаков
Язык : Russian
Default : Нет
Forced : Нет
Аудио #5
Идентификатор : 6
Формат : DTS
Формат/Информация : Digital Theater Systems
Профиль формата : MA / Core
Режим : 16
Параметр Endianness формата : Big
Идентификатор кодека : A_DTS
Продолжительность : 1 ч. 25 м.
Вид битрейта : Переменный / Постоянный
Битрейт : 2097 Кбит/сек / 1509 Кбит/сек
Каналы : 2 канала
Расположение каналов : Front: L R
Частота : 48,0 КГц
Частота кадров : 93,750 кадра/сек (512 spf)
Битовая глубина : 24 бит
Метод сжатия : Без потерь / Lossy
Размер потока : 1,26 Гбайт (8%)
Язык : English
Default : Нет
Forced : Нет
Текст
Идентификатор : 7
Формат : UTF-8
Идентификатор кодека : S_TEXT/UTF8
Идентификатор кодека/Информация : UTF-8 Plain Text
Продолжительность : 1 ч. 20 м.
Битрейт : 39 бит/сек
ElementCount : 835
Размер потока : 23,4 Кбайт (0%)
Заголовок : SDH
Язык : English
Default : Нет
Forced : Нет
Меню
00:00:00.000 : en:00:00:00.000
00:06:02.237 : en:00:06:02.237
00:12:55.775 : en:00:12:55.775
00:21:44.762 : en:00:21:44.762
00:29:00.280 : en:00:29:00.280
00:34:20.976 : en:00:34:20.976
00:40:58.581 : en:00:40:58.581
00:48:21.357 : en:00:48:21.357
00:55:02.007 : en:00:55:02.007
01:02:05.430 : en:01:02:05.430
01:09:48.559 : en:01:09:48.559
01:22:35.951 : en:01:22:35.951
[Профиль] [ЛС]
Кто просматривает тему:

Форум Тема Автор Размер
Nat Geo Wild Nat Geo Wild: Национальные парки Америки. Арктические врата / America's National Parks. Gates of the Arctic [сезон 1 серия 4] (Uwe Anders) [2015 г., Документальный, природа, флора, фауна,... skorpionN 1.48 GB
National Geographic NG: Исследователь 2.0: Бирма (Точка невозврата) [сезон 8 эпизод 09] / Explorer. Point of No Return (Todd Hermann) [2016 г., Документальный, научно-попупулярный, HDTVRip 720p] skorpionN 1.44 GB
Фильмы (HD DVD, Blu-ray и BDRemux) Врата ада / Hellgate (1989) BDRemux 1080р | P, A BOSS 23.52 GB
Фильмы 2009 года Врата в 3D / The Hole (Джо Данте/Joe Dante) [2009, США, ужасы, фэнтези, триллер, комедия, BDRip] Dub + Sub Eng reversefile 1.45 GB
Зарубежные Врата в 3Д / The Hole 3D (Джо Данте / Joe Dante) [2009, США, фэнтези, триллер, комедия, Blu-ray disc (custom) 1080p] BD3D TorrentFilm 34.22 GB
Фильмы (HD Rips | 720p, 1080p) Врата воинов / Warriors Gate (2016) BDRip 1080p | L BOSS 8.59 GB
Фильмы (HD Rips | 720p, 1080p) Врата воинов / Warriors Gate (2016) BDRip 720p | L BOSS 4.56 GB
Фильмы 2016 года Врата воинов / Warriors Gate (2016) HDRip | L BOSS 2.05 GB
Показать сообщения:    

Текущее время: Сегодня 08:37

Часовой пояс: GMT



Вы не можете начинать темы
Вы не можете отвечать на сообщения
Вы не можете редактировать свои сообщения
Вы не можете удалять свои сообщения
Вы не можете голосовать в опросах
Вы не можете прикреплять файлы к сообщениям
Вы не можете скачивать файлы