Врата тьмы / Pay the Ghost (Ули Эдель / Uli Edel) [2015, Канада, Ужасы, Триллер, HDRip] Dub (iTunes)

 
Автор Сообщение

TorrentFilm ®

Пол:

Стаж: 2 года

Сообщений: 7741



Награды: Нет

Торрент-статистика

Создавать темы 22-Дек-2015 00:09

[Цитировать]

Врата тьмы
Pay the Ghost
-Год выпуска: 2015
Страна: Канада
Жанр: Ужасы, Триллер
Продолжительность: 01:34:06
Перевод: Профессиональное (дублированный) [iTunes]
Субтитры: нет
Оригинальная аудиодорожка: нет-Режиссер: Ули Эдель / Uli Edel-В ролях: Николас Кейдж, Сара Уэйн Каллис, Алекс Маллари-мл., Вероника Феррес, Лирик Бент, Эрин Бойес, Джек Фултон, София Уэллс, Элизабет Джинна ле Ру, Марк Ирвингсен, Максвелл МакКейб-Локос, Хуан Карлос Велис, Лорен Битти-Описание: Существует древнее поверье, что раз в год, на Хэллоуин, открываются врата между миром живых и миром мертвых. В этот день зло практически всесильно…
Во время ночного праздничного парада в Нью-Йорке у профессора Майка Кола бесследно пропадает его маленький сын. Полиции не удается найти ребенка, однако после собственного расследования отец узнает, что некое мощное древнее проклятие забирает детей каждый год. Чтобы вернуть себе своего сына, у него есть только один шанс — в ночь на Хэллоуин отправиться по ту сторону врат тьмы….- -Семпл: http://multi-up.com/1080240-Качество видео: HDRip (исходник BDRip 720p)
Формат видео: AVI
Видео: 720x304 (2.37:1), 23.976 fps, XviD build 73 ~1819 kbps avg, 0.35 bit/pixel
Аудио: 48 kHz, AC3 Dolby Digital, 3/2 (L,C,R,l,r) + LFE ch, ~384 kbps-

MediaInfo

General
Complete name : Pay.The.Ghost.2015.D.HDRip.avi
Format : AVI
Format/Info : Audio Video Interleave
File size : 1.45 GiB
Duration : 1h 34mn
Overall bit rate : 2 213 Kbps
Writing application : VirtualDubMod 1.5.10.3 | www.virtualdub-fr.org || (build 2550/release)
Writing library : VirtualDubMod build 2550/release
Video
ID : 0
Format : MPEG-4 Visual
Format profile : Advanced Simple@L5
Format settings, BVOP : 1
Format settings, QPel : No
Format settings, GMC : No warppoints
Format settings, Matrix : Custom
Codec ID : XVID
Codec ID/Hint : XviD
Duration : 1h 34mn
Bit rate : 1 820 Kbps
Width : 720 pixels
Height : 304 pixels
Display aspect ratio : 2.35:1
Frame rate : 23.976 fps
Color space : YUV
Chroma subsampling : 4:2:0
Bit depth : 8 bits
Scan type : Progressive
Compression mode : Lossy
Bits/(Pixel*Frame) : 0.347
Stream size : 1.20 GiB (82%)
Writing library : XviD 73
Audio
ID : 1
Format : AC-3
Format/Info : Audio Coding 3
Mode extension : CM (complete main)
Format settings, Endianness : Big
Codec ID : 2000
Duration : 1h 34mn
Bit rate mode : Constant
Bit rate : 384 Kbps
Channel(s) : 6 channels
Channel positions : Front: L C R, Side: L R, LFE
Sampling rate : 48.0 KHz
Compression mode : Lossy
Stream size : 258 MiB (17%)
Alignment : Split accross interleaves
Interleave, duration : 42 ms (1.00 video frame)
Interleave, preload duratio : 500 ms

Скриншоты



[Профиль] [ЛС]
Кто просматривает тему:

Форум Тема Автор Размер
Nat Geo Wild Nat Geo Wild: Национальные парки Америки. Арктические врата / America's National Parks. Gates of the Arctic [сезон 1 серия 4] (Uwe Anders) [2015 г., Документальный, природа, флора, фауна,... skorpionN 1.48 GB
National Geographic NG: Исследователь 2.0: Бирма (Точка невозврата) [сезон 8 эпизод 09] / Explorer. Point of No Return (Todd Hermann) [2016 г., Документальный, научно-попупулярный, HDTVRip 720p] skorpionN 1.44 GB
Фильмы 2009 года Врата в 3D / The Hole (Джо Данте/Joe Dante) [2009, США, ужасы, фэнтези, триллер, комедия, BDRip] Dub + Sub Eng reversefile 1.45 GB
Зарубежные Врата в 3Д / The Hole 3D (Джо Данте / Joe Dante) [2009, США, фэнтези, триллер, комедия, Blu-ray disc (custom) 1080p] BD3D TorrentFilm 34.22 GB
Зарубежные Врата дракона в 3Д / Flying Swords of Dragon Gate 3D (Цуй Харк / Tsui Hark) [2011, боевик, приключения, Blu-Ray Disc, 1080p] BD3D TorrentFilm 19.92 GB
Фильмы 2015 года Врата солнца: Алжир навсегда / Les portes du soleil: Algérie pour toujours (2014) WEB-DLRip | P достали все 1.37 GB
Фильмы (HD DVD, Blu-ray и BDRemux) Врата тьмы / Pay the Ghost (2015) BDRemux 1080p достали все 20.17 GB
Фильмы (HD Rips | 720p, 1080p) Врата тьмы / Pay the Ghost (2015) BDRip 1080p | iTunes BOSS 12.34 GB
Показать сообщения:    

Текущее время: Сегодня 09:56

Часовой пояс: GMT



Вы не можете начинать темы
Вы не можете отвечать на сообщения
Вы не можете редактировать свои сообщения
Вы не можете удалять свои сообщения
Вы не можете голосовать в опросах
Вы не можете прикреплять файлы к сообщениям
Вы не можете скачивать файлы