Врата тьмы / Pay the Ghost (2015) WEB-DLRip от AleksSin | iTunes

 
Автор Сообщение

AleksSin ®

Пол:

Стаж: 6 лет

Сообщений: 218



Награды: 4 (Подробнее)

Mega Seeder 2 (Количество: 1) Mega Seeder 1 (Количество: 1) Mega Seeder 4 (Количество: 1)
Торрент-статистика

Создавать темы 22-Окт-2015 19:41

[Цитировать]

Врата тьмы / Pay the GhostГод выхода: 2015
Жанр: ужасы, триллер
Режиссер: Ули Эдель
В ролях: Николас Кейдж, Сара Уэйн Каллис, Алекс Маллари-мл., Вероника Феррес, Лирик Бент, Эрин Бойес, Джек Фултон, София Уэллс, Элизабет Джинна ле Ру, Марк Ирвингсен, Максвелл МакКейб-Локос, Хуан Карлос Велис, Лорен Битти
О фильме:
Существует древнее поверье, что раз в год, на Хэллоуин, открываются врата между миром живых и миром мертвых. В этот день зло практически всесильно…
Во время ночного праздничного парада в Нью-Йорке у профессора Майка Кола бесследно пропадает его маленький сын. Полиции не удается найти ребенка, однако после собственного расследования отец узнает, что некое мощное древнее проклятие забирает детей каждый год. Чтобы вернуть себе своего сына, у него есть только один шанс — в ночь на Хэллоуин отправиться по ту сторону врат тьмы….

Страна: США
Студия: Midnight Kitchen Productions, Voltage Films
Продолжительность: 01:33:53
Перевод: Дублированный (iTunes)
Файл
Кодек: AVI (XviD)
Качество: WEB-DLRip (Исх. WEB-DL 1080p)
Видео: 720x304 (2.37:1), 24.000 fps, XviD build 73 ~1827 kbps avg, 0.35 bit/pixel
Audio: 48 kHz, AC3 Dolby Digital, 3/2 (L,C,R,l,r) + LFE ch, ~384 kbps
Субтитры: нет
Семпл

MediaInfo

Общее
Полное имя : S:ФильмыВрата тьмы. 2015. WEB-DLRip. (AleksSin).avi
Формат : AVI
Формат/Информация : Audio Video Interleave
Размер файла : 1,46 Гбайт
Продолжительность : 1 ч. 33 м.
Общий поток : 2220 Кбит/сек
Программа кодирования : VirtualDubMod 1.5.10.3 | www.virtualdub-fr.org || (build 2550/release)
Библиотека кодирования : VirtualDubMod build 2550/release
Видео
Идентификатор : 0
Формат : MPEG-4 Visual
Профиль формата : Advanced Simple@L5
Параметр BVOP формата : 1
Параметр QPel формата : Нет
Параметр GMC формата : Без точки перехода
Параметр матрицы формата : Выборочная
Идентификатор кодека : XVID
Идентификатор кодека/Подсказка : XviD
Продолжительность : 1 ч. 33 м.
Битрейт : 1827 Кбит/сек
Ширина : 720 пикселей
Высота : 304 пикселя
Соотношение сторон : 2,35:1
Частота кадров : 24,000 кадра/сек
Цветовое пространство : YUV
Субдискретизация насыщенности : 4:2:0
Битовая глубина : 8 бит
Тип развёртки : Прогрессивная
Метод сжатия : С потерями
Бит/(Пиксели*Кадры) : 0.348
Размер потока : 1,20 Гбайт (82%)
Библиотека кодирования : XviD 73
Аудио
Идентификатор : 1
Формат : AC-3
Формат/Информация : Audio Coding 3
Расширение режима : CM (complete main)
Параметр Endianness формата : Big
Идентификатор кодека : 2000
Продолжительность : 1 ч. 33 м.
Вид битрейта : Постоянный
Битрейт : 384 Кбит/сек
Каналы : 6 каналов
Расположение каналов : Front: L C R, Side: L R, LFE
Частота : 48,0 КГц
Битовая глубина : 16 бит
Метод сжатия : С потерями
Размер потока : 258 Мбайт (17%)
Выравнивание : Разделение по промежуткам
Продолжительность промежутка : 42 мс. (1,00 видеокадр)
Время предзагрузки промежутка : 500 мс.

Скриншоты

Релиз от:
[Профиль] [ЛС]
Кто просматривает тему:

Форум Тема Автор Размер
Nat Geo Wild Nat Geo Wild: Национальные парки Америки. Арктические врата / America's National Parks. Gates of the Arctic [сезон 1 серия 4] (Uwe Anders) [2015 г., Документальный, природа, флора, фауна,... skorpionN 1.48 GB
National Geographic NG: Исследователь 2.0: Бирма (Точка невозврата) [сезон 8 эпизод 09] / Explorer. Point of No Return (Todd Hermann) [2016 г., Документальный, научно-попупулярный, HDTVRip 720p] skorpionN 1.44 GB
Фильмы 2009 года Врата в 3D / The Hole (Джо Данте/Joe Dante) [2009, США, ужасы, фэнтези, триллер, комедия, BDRip] Dub + Sub Eng reversefile 1.45 GB
Зарубежные Врата в 3Д / The Hole 3D (Джо Данте / Joe Dante) [2009, США, фэнтези, триллер, комедия, Blu-ray disc (custom) 1080p] BD3D TorrentFilm 34.22 GB
Зарубежные Врата дракона в 3Д / Flying Swords of Dragon Gate 3D (Цуй Харк / Tsui Hark) [2011, боевик, приключения, Blu-Ray Disc, 1080p] BD3D TorrentFilm 19.92 GB
Фильмы 2015 года Врата солнца: Алжир навсегда / Les portes du soleil: Algérie pour toujours (2014) WEB-DLRip | P достали все 1.37 GB
Фильмы (HD DVD, Blu-ray и BDRemux) Врата тьмы / Pay the Ghost (2015) BDRemux 1080p достали все 20.17 GB
Фильмы (HD Rips | 720p, 1080p) Врата тьмы / Pay the Ghost (2015) BDRip 1080p | iTunes BOSS 12.34 GB
Показать сообщения:    

Текущее время: Сегодня 10:49

Часовой пояс: GMT



Вы не можете начинать темы
Вы не можете отвечать на сообщения
Вы не можете редактировать свои сообщения
Вы не можете удалять свои сообщения
Вы не можете голосовать в опросах
Вы не можете прикреплять файлы к сообщениям
Вы не можете скачивать файлы