Врата тьмы / Pay the Ghost (2015) WEB-DL 720p | L2

 
Автор Сообщение

достали все ®

Пол:

Стаж: 1 год 8 месяцев

Сообщений: 6525



Награды: 12 (Подробнее)

Mega Seeder 5 (Количество: 1) Mega Seeder 2 (Количество: 1) Mega Seeder 3 (Количество: 1)
Торрент-статистика

Создавать темы 20-Сен-2015 02:49

[Цитировать]

Информация о фильме
Название: Врата тьмы
Оригинальное название: Pay the Ghost
Год выхода: 2015
Жанр: ужасы, триллер
Режиссер: Ули Эдель
В ролях: Николас Кейдж, Сара Уэйн Кэллис, Алекс Маллари мл., Вероника Феррес, Лайрик Бент, Джек Фултон, София Уэллс, Элизабет Джинн ле Ру, Эрин Бойес, Хо Чоу
О фильме: Существует древнее поверье, что раз в год, на Хэллоуин, открываются врата между миром живых и миром мертвых. В этот день зло практически всесильно…
Во время ночного праздничного парада в Нью-Йорке у профессора Майка Кола бесследно пропадает его маленький сын. Полиции не удается найти ребенка, однако после собственного расследования отец узнает, что некое мощное древнее проклятие забирает детей каждый год. Чтобы вернуть себе своего сына, у него есть только один шанс — в ночь на Хэллоуин отправиться по ту сторону врат тьмы….


Выпущено: США / Midnight Kitchen Productions, Voltage Films
Продолжительность: 01:34:06
Озвучивание: Любительское (двухголосое) [GreenРай Studio]
Файл
Формат: MKV
Качество: WEB-DL 720p
Видео: 3811 kb/s, 1280x530
Аудио: Russian / English: AC3, 384 kb/s (6 ch)
Субтитры: English

MI

Format : Matroska
Format version : Version 2
File size : 3.07 GiB
Duration : 1h 34mn
Overall bit rate : 4 672 Kbps
Encoded date : UTC 2015-09-19 18:28:34
Writing application : mkvmerge v6.5.0 ('Isn't she lovely') built on Oct 20 2013 12:50:05
Writing library : libebml v1.3.0 + libmatroska v1.4.1
Video
ID : 1
Format : AVC
Format/Info : Advanced Video Codec
Format profile : Main@L3.1
Format settings, CABAC : No
Format settings, ReFrames : 2 frames
Codec ID : V_MPEG4/ISO/AVC
Duration : 1h 34mn
Bit rate : 3 811 Kbps
Width : 1 280 pixels
Height : 530 pixels
Display aspect ratio : 2.40:1
Frame rate mode : Constant
Frame rate : 23.976 fps
Color space : YUV
Chroma subsampling : 4:2:0
Bit depth : 8 bits
Scan type : Progressive
Bits/(Pixel*Frame) : 0.234
Stream size : 2.51 GiB (82%)
Language : English
Default : Yes
Forced : No
Color range : Limited
Color primaries : BT.709
Transfer characteristics : BT.709
Matrix coefficients : BT.709
Audio #1
ID : 2
Format : AC-3
Format/Info : Audio Coding 3
Mode extension : CM (complete main)
Format settings, Endianness : Big
Codec ID : A_AC3
Duration : 1h 34mn
Bit rate mode : Constant
Bit rate : 384 Kbps
Channel(s) : 6 channels
Channel positions : Front: L C R, Side: L R, LFE
Sampling rate : 48.0 KHz
Bit depth : 16 bits
Compression mode : Lossy
Stream size : 258 MiB (8%)
Title : GreenРай Studio
Language : Russian
Default : Yes
Forced : Yes
Audio #2
ID : 3
Format : AC-3
Format/Info : Audio Coding 3
Mode extension : CM (complete main)
Format settings, Endianness : Big
Codec ID : A_AC3
Duration : 1h 34mn
Bit rate mode : Constant
Bit rate : 384 Kbps
Channel(s) : 6 channels
Channel positions : Front: L C R, Side: L R, LFE
Sampling rate : 48.0 KHz
Bit depth : 16 bits
Compression mode : Lossy
Stream size : 258 MiB (8%)
Language : English
Default : No
Forced : No
Text
ID : 4
Format : UTF-8
Codec ID : S_TEXT/UTF8
Codec ID/Info : UTF-8 Plain Text
Language : English
Default : No
Forced : No

Скриншоты



[Профиль] [ЛС]
Кто просматривает тему:

Форум Тема Автор Размер
Nat Geo Wild Nat Geo Wild: Национальные парки Америки. Арктические врата / America's National Parks. Gates of the Arctic [сезон 1 серия 4] (Uwe Anders) [2015 г., Документальный, природа, флора, фауна,... skorpionN 1.48 GB
National Geographic NG: Исследователь 2.0: Бирма (Точка невозврата) [сезон 8 эпизод 09] / Explorer. Point of No Return (Todd Hermann) [2016 г., Документальный, научно-попупулярный, HDTVRip 720p] skorpionN 1.44 GB
Фильмы 2009 года Врата в 3D / The Hole (Джо Данте/Joe Dante) [2009, США, ужасы, фэнтези, триллер, комедия, BDRip] Dub + Sub Eng reversefile 1.45 GB
Зарубежные Врата в 3Д / The Hole 3D (Джо Данте / Joe Dante) [2009, США, фэнтези, триллер, комедия, Blu-ray disc (custom) 1080p] BD3D TorrentFilm 34.22 GB
Зарубежные Врата дракона в 3Д / Flying Swords of Dragon Gate 3D (Цуй Харк / Tsui Hark) [2011, боевик, приключения, Blu-Ray Disc, 1080p] BD3D TorrentFilm 19.92 GB
Фильмы 2015 года Врата солнца: Алжир навсегда / Les portes du soleil: Algérie pour toujours (2014) WEB-DLRip | P достали все 1.37 GB
Фильмы (HD DVD, Blu-ray и BDRemux) Врата тьмы / Pay the Ghost (2015) BDRemux 1080p достали все 20.17 GB
Фильмы (HD Rips | 720p, 1080p) Врата тьмы / Pay the Ghost (2015) BDRip 1080p | iTunes BOSS 12.34 GB
Показать сообщения:    

Текущее время: Сегодня 11:56

Часовой пояс: GMT



Вы не можете начинать темы
Вы не можете отвечать на сообщения
Вы не можете редактировать свои сообщения
Вы не можете удалять свои сообщения
Вы не можете голосовать в опросах
Вы не можете прикреплять файлы к сообщениям
Вы не можете скачивать файлы