Врата в 3D / The Hole (Джо Данте/Joe Dante) [2009, США, ужасы, фэнтези, триллер, комедия, BDRip] Dub + Sub Eng

 
Автор Сообщение

reversefile ®

Пол:

Стаж: 4 года 5 месяцев

Сообщений: 842

Откуда: ReverseFile.org



Награды: Нет

Торрент-статистика

Создавать темы 11-Авг-2014 10:48

[Цитировать]

Врата в 3D / The Hole
Страна: США
Жанр: ужасы, фэнтези, триллер, комедия
Год выпуска: 2009
Продолжительность: 01:32:38
Перевод: Профессиональный (дублированный)
Cубтитры: английские
Оригинальная аудиодорожка: нет
Режиссер: Джо Данте/Joe Dante
В ролях: Крис Дж. Келли, Хейли Беннетт, Натан Гэмбл, Тери Поло, Брюс Дерн, Куинн Лорд, Джон ДеСантис, Дуглас Чэпман, Марк Поусон, Питер Шинкода
Описание: Куда уж хуже! — именно так думает 17-ти летний Дени и его 10-ти летний брат Лукас, когда мать перевозит их из Нью-Йорка в сонный городишко Бенсонвиль. Не спеши расстраиваться Дени: твоя новая соседка Джули очень даже ничего. Мама всё больше пропадает на работе, ей некогда заниматься детьми, и братья находят себе занятие: исследовать своё новое место жительства. Дени всё больше интересуется Джулией, и всё меньше своим младшим братом.
Но всё изменится, когда они найдут зловещую бездонную дыру, закрытую люком в подвале. И открыв крышку люка, братьев пронизывает леденящий сердце холод — этот бездонный колодец является вратами в миры тьмы. И теперь, когда они выпустили зло на волю, в каждой тени оживут их потаённые страхи, и им придётся встретится лицом к лицу с ужасом, чтобы закрыть врата навсегда.
Доп. информация:
Венецианский кинофестиваль, 2009 год
Победитель: Лучший 3-D стереоскопический фильм
Сэмпл: http://yadi.sk/d/ZJ9fxkmCJgJZM
Качество видео: BDRip (gmouse / BDRemux / 1080р)
Формат видео: AVI
Видео: 704x384 (1.83:1), 23.976 fps, XviD build 72 ~1787 kbps avg, 0.28 bit/pixel
Аудио: 48 kHz, AC3 Dolby Digital, 3/2 (L,C,R,l,r) + LFE ch, ~448 kbps avg (RUS)
Формат субтитров: softsub (SRT)

MediaInfo

Video
ID : 0
Format : MPEG-4 Visual
Format profile : Advanced Simple@L5
Format settings, BVOP : 1
Format settings, QPel : No
Format settings, GMC : No warppoints
Format settings, Matrix : Custom
Codec ID : XVID
Codec ID/Hint : XviD
Duration : 1h 32mn
Bit rate : 1 788 Kbps
Width : 704 pixels
Height : 384 pixels
Display aspect ratio : 16:9
Frame rate : 23.976 fps
Color space : YUV
Chroma subsampling : 4:2:0
Bit depth : 8 bits
Scan type : Progressive
Compression mode : Lossy
Bits/(Pixel*Frame) : 0.276
Stream size : 1.16 GiB (80%)
Writing library : XviD 72
Audio
ID : 1
Format : AC-3
Format/Info : Audio Coding 3
Mode extension : CM (complete main)
Codec ID : 2000
Duration : 1h 32mn
Bit rate mode : Constant
Bit rate : 448 Kbps
Channel(s) : 6 channels
Channel positions : Front: L C R, Side: L R, LFE
Sampling rate : 48.0 KHz
Bit depth : 16 bits
Compression mode : Lossy
Stream size : 297 MiB (20%)
Alignment : Split accross interleaves
Interleave, duration : 42 ms (1.00 video frame)
Interleave, preload duration : 500 ms

Скриншот c названием фильма

Скриншоты

[Профиль] [ЛС]

Создавать темы 06-Авг-2015 23:19 (спустя 11 месяцев 26 дней)

Топик был перенесен из форума Фильмы до 2014 года в форум Фильмы до 2012 года
sergej644
 

Создавать темы 12-Июн-2016 08:13 (спустя 1 год 10 месяцев)

Топик был перенесен из форума Фильмы 2011 года в форум Фильмы 2009 года
Russian Mafia
 
Кто просматривает тему:

Форум Тема Автор Размер
Nat Geo Wild Nat Geo Wild: Национальные парки Америки. Арктические врата / America's National Parks. Gates of the Arctic [сезон 1 серия 4] (Uwe Anders) [2015 г., Документальный, природа, флора, фауна,... skorpionN 1.48 GB
National Geographic NG: Исследователь 2.0: Бирма (Точка невозврата) [сезон 8 эпизод 09] / Explorer. Point of No Return (Todd Hermann) [2016 г., Документальный, научно-попупулярный, HDTVRip 720p] skorpionN 1.44 GB
Зарубежные Врата в 3Д / The Hole 3D (Джо Данте / Joe Dante) [2009, США, фэнтези, триллер, комедия, Blu-ray disc (custom) 1080p] BD3D TorrentFilm 34.22 GB
Зарубежные Врата дракона в 3Д / Flying Swords of Dragon Gate 3D (Цуй Харк / Tsui Hark) [2011, боевик, приключения, Blu-Ray Disc, 1080p] BD3D TorrentFilm 19.92 GB
Фильмы 2015 года Врата солнца: Алжир навсегда / Les portes du soleil: Algérie pour toujours (2014) WEB-DLRip | P достали все 1.37 GB
Фильмы (HD DVD, Blu-ray и BDRemux) Врата тьмы / Pay the Ghost (2015) BDRemux 1080p достали все 20.17 GB
Фильмы (HD Rips | 720p, 1080p) Врата тьмы / Pay the Ghost (2015) BDRip 1080p | iTunes BOSS 12.34 GB
Фильмы (HD Rips | 720p, 1080p) Врата тьмы / Pay the Ghost (2015) BDRip 720p | iTunes достали все 3.72 GB
Показать сообщения:    

Текущее время: Сегодня 00:10

Часовой пояс: GMT



Вы не можете начинать темы
Вы не можете отвечать на сообщения
Вы не можете редактировать свои сообщения
Вы не можете удалять свои сообщения
Вы не можете голосовать в опросах
Вы не можете прикреплять файлы к сообщениям
Вы не можете скачивать файлы