Враг государства / Enemy of the State (1998) Blu-Ray Remux 1080p от ivandubskoj | D, 3 x P, 3 x A

 
Автор Сообщение

sergej644 ®

Пол:

Стаж: 4 года 11 месяцев

Сообщений: 6042

Откуда: Soviet Union



Награды: Нет

Торрент-статистика

Создавать темы 13-Мар-2015 19:07

[Цитировать]

--Враг государства Информация о фильме
Название: Враг государства
Оригинальное название: Enemy of the State
Год выхода: 1998
Жанр: Боевик, триллер, детектив, драма
Режиссёр: Тони Скотт
В ролях: Уилл Смит, Джин Хэкмен, Джон Войт, Лиза Боне, Реджина Кинг, Стюарт Уилсон, Лаура Кайот, Лорен Дин, Бэрри Пеппер, Иэн Харт, Джейк Бьюзи, Скотт Каан, Джейсон Ли, Гэбриел Бирн, Джеймс ЛеГрос, Дэн Батлер, Джек Блэк, Джейми Кеннеди, Бодхи Элфмэн, Джейкоб Чэмберс, Александра Белахойтис, Анна Ганн, Яша Вашингтон, Ребекка Силва, Бобби Бориелло, Карл Мергенталер, Маттиас Крэмер, Лилло Бранкато, Джон Каподиче, Вик Манни, Т.Р. Ричардс, Ивана Миличевич, Пэтси Грэйди Абрамс, Беатриз Мэйорал, Каси Линн Куинн, Элизабет Берман, Донна В. Скотт, Эллисон Си
О фильме:
Каждое мгновение своей жизни человек находится на виду, даже когда он уверен, что его никто не видит. В руки преуспевающего адвоката Роберта Дина попала страшная улика, разоблачающая высокопоставленного чиновника. Но секретная служба узнала об этом раньше Роберта и немедленно приняла меры. В ход пошли самые новейшие технологии: в современном мире не нужно быть магом, чтобы изменить человеческую судьбу, — достаточно просто подойти к компьютеру. За считанные дни из законопослушного гражданина Дин превратился в опасного преступника, на которого была объявлена настоящая охота. Когда адвокат найдет союзников и передаст им таинственную улику, полетят многие головы… если до этого он не лишится своей...

Выпущено: США, Don Simpson, Jerry Bruckheimer Films, No Such Productions, Scott Free Productions, Touchstone Pictures
Продолжительность: 02:12:11
Перевод: Дублированный (Невафильм)*, профессиональный многоголосый (ОРТ), профессиональный многоголосый, авторский одноголосый (А. Гаврилов), авторский одноголосый (Е. Гаевский)*, авторский одноголосый (Ю. Живов)*, украинский профессиональный многоголосый
Оригинальная аудио-дорожка: Английская*
Файл
Кодек: MPEG-2
Качество: Blu-Ray Remux 1080p [Исходник: Blu-ray 1080p MPEG2 LPCM 5.1]
Видео: MPEG-2, 19.6 Mбит/с, 1920x1080 (16;9), 23.976 кадр/с
Аудио #1: Русский, Dolby AC3, 48000 Гц, 384 Кбит/с, 6 каналов (5.1) - DUB [Невафильм] | iTunes Russia*
Аудио #2: Русский, Dolby AC3, 48000 Гц, 192 Кбит/с, 2 канала (Стерео) - MVO [ОРТ]
Аудио #3: Русский, Dolby AC3, 48000 Гц, 640 Кбит/с, 6 каналов (5.1) - MVO
Аудио #4: Русский, Dolby AC3, 48000 Гц, 640 Кбит/с, 6 каналов (5.1) - AVO [А. Гаврилов]
Аудио #5: Русский, DTS, 48000 Гц, 1510 Кбит/с, 6 каналов (5.1) - AVO, [Е. Гаевский]*
Аудио #6: Английский, DTS-HD MA, 48000 Гц, 2125 Кбит/с, 6 каналов (5.1) - AVO [Ю. Живов]
Аудио #7: Украинский, Dolby AC3, 48000 Гц, 640 Кбит/с, 6 каналов (5.1) - MVO
Аудио #8: Английский, DTS-HD MA, 48000 Гц, 2137 Кбит/с, 6 каналов (5.1) - Оригинал*
Субтитры: Русские (полные, полные SDH, форсированные*), украинские (полные), английские (полные, полные SDH)
Навигация по главам: Есть (Сохранены оригинальные чаптеры как на Blu-ray)

Примечание*

*Аудио-дорожка с русский дубляжом (5.1) и форсированные русские субтитры взяты с WEB-DL, купленной в русском iTunes, за предоставленную дорожку большое спасибо spartanec163, за синхронизацию - Elheym.
*Перевод Евгения Гаевского доступен благодаря DREADG, zav25, dikii. Работа со звуком Переводман, рип - mihaildns.
*Русская аудио-дорожка с авторский переводом Юрия Живова (DTS-HD MA) - получена микшированием чистого голоса переводчика с каналом оригинальной HD дорожки.
*Английская аудио-дорожка (DTS-HD МА) получена из PCM WAVS оригинальной английской аудио-дорожки

Знаете ли вы, что...

• В разное время на главную роль в фильме претендовали - Том Круз и Мэл Гибсон.
• В фильме фигурирует «глобальная система радиоэлектронной разведки» - Эшелон.

MediaInfo

General
Unique ID : 213124707984042781101735221821639926954 (0xA05653610B49A7D6B5FE4A12188AA4AA)
Complete name : Enemy.of.The.State.1998.BDRemux.1080p.mkv
Format : Matroska
File size : 26.3 GiB
Duration : 2h 12mn
Overall bit rate : 28.5 Mbps
Movie name : Враг государства / Enemy of The State (1998) Blu-ray Remux (1080p)
Encoded date : UTC 2015-03-11 16:25:40
Writing application : mkvmerge v6.1.0 ('Old Devil') built on Mar 4 2013 09:10:42
Writing library : libebml v1.3.0 + libmatroska v1.4.0
Video
ID : 1
Format : MPEG Video
Format version : Version 2
Format profile : Main@High
Format settings, BVOP : No
Format settings, Matrix : Default
Codec ID : V_MPEG2
Codec ID/Info : MPEG 1 or 2 Video
Duration : 2h 12mn
Bit rate mode : Variable
Bit rate : 19.6 Mbps
Nominal bit rate : 37.0 Mbps
Width : 1 920 pixels
Height : 1 080 pixels
Display aspect ratio : 16:9
Frame rate : 23.976 fps
Color space : YUV
Chroma subsampling : 4:2:0
Bit depth : 8 bits
Compression mode : Lossy
Bits/(Pixel*Frame) : 0.395
Stream size : 18.1 GiB (69%)
Title : Враг государства / Enemy of The State (1998)
Language : English
Audio #1
ID : 2
Format : AC-3
Format/Info : Audio Coding 3
Mode extension : CM (complete main)
Codec ID : A_AC3
Duration : 2h 12mn
Bit rate mode : Constant
Bit rate : 384 Kbps
Channel(s) : 6 channels
Channel positions : Front: L C R, Side: L R, LFE
Sampling rate : 48.0 KHz
Bit depth : 16 bits
Compression mode : Lossy
Stream size : 363 MiB (1%)
Title : DUB [Невафильм]
Language : Russian
Audio #2
ID : 3
Format : AC-3
Format/Info : Audio Coding 3
Mode extension : CM (complete main)
Codec ID : A_AC3
Duration : 2h 12mn
Bit rate mode : Constant
Bit rate : 192 Kbps
Channel(s) : 2 channels
Channel positions : Front: L R
Sampling rate : 48.0 KHz
Bit depth : 16 bits
Compression mode : Lossy
Stream size : 182 MiB (1%)
Title : MVO [ОРТ]
Language : Russian
Audio #3
ID : 4
Format : AC-3
Format/Info : Audio Coding 3
Mode extension : CM (complete main)
Codec ID : A_AC3
Duration : 2h 12mn
Bit rate mode : Constant
Bit rate : 640 Kbps
Channel(s) : 6 channels
Channel positions : Front: L C R, Side: L R, LFE
Sampling rate : 48.0 KHz
Bit depth : 16 bits
Compression mode : Lossy
Stream size : 605 MiB (2%)
Title : MVO
Language : Russian
Audio #4
ID : 5
Format : AC-3
Format/Info : Audio Coding 3
Mode extension : CM (complete main)
Codec ID : A_AC3
Duration : 2h 12mn
Bit rate mode : Constant
Bit rate : 640 Kbps
Channel(s) : 6 channels
Channel positions : Front: L C R, Side: L R, LFE
Sampling rate : 48.0 KHz
Bit depth : 16 bits
Compression mode : Lossy
Stream size : 605 MiB (2%)
Title : AVO [А. Гаврилов]
Language : Russian
Audio #5
ID : 6
Format : DTS
Format/Info : Digital Theater Systems
Codec ID : A_DTS
Duration : 2h 12mn
Bit rate mode : Constant
Bit rate : 1 510 Kbps
Channel(s) : 6 channels
Channel positions : Front: L C R, Side: L R, LFE
Sampling rate : 48.0 KHz
Bit depth : 16 bits
Compression mode : Lossy
Stream size : 1.39 GiB (5%)
Title : AVO [Е. Гаевский]
Language : Russian
Audio #6
ID : 7
Format : DTS
Format/Info : Digital Theater Systems
Format profile : MA / Core
Codec ID : A_DTS
Duration : 2h 12mn
Bit rate mode : Variable
Bit rate : 2 125 Kbps / 1 510 Kbps
Channel(s) : 6 channels
Channel positions : Front: L C R, Side: L R, LFE
Sampling rate : 48.0 KHz
Bit depth : 16 bits
Compression mode : Lossless / Lossy
Title : AVO [Ю. Живов]
Language : Russian
Audio #7
ID : 8
Format : AC-3
Format/Info : Audio Coding 3
Mode extension : CM (complete main)
Codec ID : A_AC3
Duration : 2h 12mn
Bit rate mode : Constant
Bit rate : 640 Kbps
Channel(s) : 6 channels
Channel positions : Front: L C R, Side: L R, LFE
Sampling rate : 48.0 KHz
Bit depth : 16 bits
Compression mode : Lossy
Stream size : 605 MiB (2%)
Title : MVO
Language : Ukrainian
Audio #8
ID : 9
Format : DTS
Format/Info : Digital Theater Systems
Format profile : MA / Core
Codec ID : A_DTS
Duration : 2h 12mn
Bit rate mode : Variable
Bit rate : 2 137 Kbps / 1 510 Kbps
Channel(s) : 6 channels
Channel positions : Front: L C R, Side: L R, LFE
Sampling rate : 48.0 KHz
Bit depth : 16 bits
Compression mode : Lossless / Lossy
Title : Original
Language : English
Text #1
ID : 10
Format : UTF-8
Codec ID : S_TEXT/UTF8
Codec ID/Info : UTF-8 Plain Text
Title : Full
Language : Russian
Text #2
ID : 11
Format : UTF-8
Codec ID : S_TEXT/UTF8
Codec ID/Info : UTF-8 Plain Text
Title : Full [SDH]
Language : Russian
Text #3
ID : 12
Format : UTF-8
Codec ID : S_TEXT/UTF8
Codec ID/Info : UTF-8 Plain Text
Title : Forced
Language : Russian
Text #4
ID : 13
Format : UTF-8
Codec ID : S_TEXT/UTF8
Codec ID/Info : UTF-8 Plain Text
Title : Full
Language : Ukrainian
Text #5
ID : 14
Format : UTF-8
Codec ID : S_TEXT/UTF8
Codec ID/Info : UTF-8 Plain Text
Title : Full
Language : English
Text #6
ID : 15
Format : UTF-8
Codec ID : S_TEXT/UTF8
Codec ID/Info : UTF-8 Plain Text
Title : Full [SDH]
Language : English
Menu
00:00:00.000 : en:Program Start
00:00:48.217 : en:Eliminating Opposition
00:04:26.403 : en:Opening Credits
00:06:20.017 : en:Taking On the Mob
00:09:59.469 : en:A Visit with Pintero
00:14:15.994 : en:A Problem at the Lake
00:18:18.071 : en:Zavitz's Tape
00:22:11.172 : en:Rabbit on the Run
00:31:26.362 : en:Dean's Profile
00:35:38.113 : en:Unexpected Visitors
00:38:22.111 : en:Getting into Dean's Life
00:44:01.951 : en:Dean's Life in Shambles
00:51:21.525 : en:Conversation with Rachel
00:56:12.716 : en:A Rough Cab Ride
00:59:06.591 : en:Brill
01:03:56.514 : en:Moving Target
01:09:19.003 : en:Tunnel Vision
01:13:39.598 : en:Winning Carla Over
01:20:33.879 : en:The Setup
01:27:34.199 : en:The Jar
01:33:11.937 : en:Time Bomb
01:39:01.955 : en:Edward Lyle
01:41:59.799 : en:Turning the Tables
01:49:02.060 : en:A Call from Brill
01:50:24.677 : en:"Let the Games Begin"
01:54:11.571 : en:Getting the Tape Back
01:55:45.299 : en:Dean's Plan
02:03:54.689 : en:Wrap-Up
02:06:44.525 : en:End Credits
02:12:08.183 : en:Program End

Скриншоты



Автор ремукса - ivandubskoj
[Профиль] [ЛС]
Кто просматривает тему:

Показать сообщения:    

Текущее время: Сегодня 16:22

Часовой пояс: GMT



Вы не можете начинать темы
Вы не можете отвечать на сообщения
Вы не можете редактировать свои сообщения
Вы не можете удалять свои сообщения
Вы не можете голосовать в опросах
Вы не можете прикреплять файлы к сообщениям
Вы не можете скачивать файлы