Враг государства / Enemy of the State (1998) BDRip 1080p

 
Автор Сообщение

sergej644 ®

Пол:

Стаж: 4 года 11 месяцев

Сообщений: 6035

Откуда: Soviet Union



Награды: Нет

Торрент-статистика

Создавать темы 01-Мар-2015 08:44

[Цитировать]

Враг государства / Enemy of the State (1998) BDRip [1080p]
Производство: USA / Touchstone Pictures, Jerry Bruckheimer Films, Don Simpson/Jerry Bruckheimer Films
Жанр: боевик, триллер, криминал, детектив
Режиссер: Тони Скотт
Актеры: Уилл Смит, Джин Хэкмен, Джон Войт, Лиза Боне, Реджина Кинг, Стюарт Уилсон, Лора Кайюэтт, Лорен Дин, Барри Пеппер, Иэн Харт
Описание фильма: Каждое мгновение своей жизни человек находится на виду, даже когда он уверен, что его никто не видит. В руки преуспевающего адвоката Роберта Дина попала страшная улика, разоблачающая высокопоставленного чиновника. Но секретная служба узнала об этом раньше Роберта и немедленно приняла меры. В ход пошли самые новейшие технологии: в современном мире не нужно быть магом, чтобы изменить человеческую судьбу, — достаточно просто подойти к компьютеру. За считанные дни из законопослушного гражданина Дин превратился в опасного преступника, на которого была объявлена настоящая охота. Когда адвокат найдет союзников и передаст им таинственную улику, полетят многие головы… если до этого он не лишится своей…

Продолжительность: 02:12:11
Качество: BDRip (1080p)
Перевод: профессиональный (полное дублирование), профессиональный (многоголосый закадровый), авторский (одноголосый закадровый)
Вид субтитров: вшитые, отключаемые
Язык субтитров: русские (Full), английские (Full, SDH)
Видео: MPEG-4 AVC/H.264, 1920 x 817 (2,35:1), 12 600 kbps, 23.976 fps, 0.337 b/px
Аудио # 1: AC3, 2 ch, 192 kbps, 48 000 Hz [дублированный]
Аудио # 2: AC3, 2 ch, 192 kbps, 48 000 Hz [многоголосый закадровый (Канал "ОРТ")]
Аудио # 3: AC3, 6 ch, 640 kbps, 48 000 Hz [одноголосый закадровый (А.Гаврилов)]
Аудио # 4: DTS, 6 ch, 1509 kbps, 48 000 Hz [одноголосый закадровый (Ю.Живов)]
Аудио # 5: DTS, 6 ch, 1509 kbps, 48 000 Hz [одноголосый закадровый (Е.Гаевский)]
Аудио # 6: AC3, 6 ch, 640 kbps, 48 000 Hz [многоголосый закадровый (Украинский)]
Аудио # 7: DTS, 6 ch, 1509 kbps, 48 000 Hz [оригинальный]

MediaInfo

Общее
Уникальный идентификатор : 253542036042038517432045723595655488985 (0xBEBE6B8104EB3DC2A8968D543CC625D9)
Полное имя : E:[1998] Враг государства [BDRip] [1080p].mkv
Формат : Matroska
Версия формата : Version 4 / Version 2
Размер файла : 17,7 Гбайт
Продолжительность : 2 ч. 12 м.
Общий поток : 19,2 Мбит/сек
Название фильма : Враг государства / Enemy of the State (1998) BDRip [1080p]
Дата кодирования : UTC 2015-02-21 07:43:04
Программа кодирования : mkvmerge v7.6.0 ('Garden of Dreams') 32bit built on Feb 8 2015 12:51:39
Библиотека кодирования : libebml v1.3.1 + libmatroska v1.4.2
DURATION : 02:05:54.629000000
NUMBER_OF_FRAMES : 1906
NUMBER_OF_BYTES : 73282
_STATISTICS_WRITING_APP : mkvmerge v7.6.0 ('Garden of Dreams') 32bit built on Feb 8 2015 12:51:39
_STATISTICS_WRITING_DATE_UTC : 2015-02-21 07:43:04
_STATISTICS_TAGS : BPS DURATION NUMBER_OF_FRAMES NUMBER_OF_BYTES
Видео
Идентификатор : 1
Формат : AVC
Формат/Информация : Advanced Video Codec
Профиль формата : High@L4.1
Параметр CABAC формата : Да
Параметр ReFrames формата : 5 кадров
Идентификатор кодека : V_MPEG4/ISO/AVC
Продолжительность : 2 ч. 12 м.
Битрейт : 12,6 Мбит/сек
Ширина : 1920 пикселей
Высота : 812 пикселей
Соотношение сторон : 2,35:1
Режим частоты кадров : Постоянный
Частота кадров : 23,976 кадра/сек
Цветовое пространство : YUV
Субдискретизация насыщенности : 4:2:0
Битовая глубина : 8 бит
Тип развёртки : Прогрессивная
Бит/(Пиксели*Кадры) : 0.337
Размер потока : 11,6 Гбайт (66%)
Заголовок : [1998] Враг государства / Enemy of the State [BDRip] [1080p]
Библиотека кодирования : x264 core 142 r2491kMod 24e4fed
Настройки программы : cabac=1 / ref=5 / deblock=1:-2:-2 / analyse=0x3:0x133 / me=umh / subme=11 / psy=1 / fade_compensate=0.00 / psy_rd=1.00:0.00 / mixed_ref=1 / me_range=32 / chroma_me=1 / trellis=2 / 8x8dct=1 / cqm=0 / deadzone=21,11 / fast_pskip=1 / chroma_qp_offset=-2 / threads=12 / lookahead_threads=2 / sliced_threads=0 / nr=0 / decimate=1 / interlaced=0 / bluray_compat=0 / constrained_intra=0 / fgo=0 / bframes=9 / b_pyramid=2 / b_adapt=2 / b_bias=0 / direct=1 / weightb=1 / open_gop=0 / weightp=2 / keyint=250 / keyint_min=23 / scenecut=40 / intra_refresh=0 / rc_lookahead=60 / rc=crf / mbtree=0 / crf=16.5000 / qcomp=0.60 / qpmin=0 / qpmax=69 / qpstep=4 / vbv_maxrate=62500 / vbv_bufsize=78125 / crf_max=0.0 / nal_hrd=none / filler=0 / ip_ratio=1.40 / pb_ratio=1.30 / aq=1:0.80
Язык : English
Default : Да
Forced : Нет
Основные цвета : BT.709
Характеристики трансфера : BT.709
Коэффициенты матрицы : BT.709
colour_range : Limited
Аудио #1
Идентификатор : 2
Формат : AC-3
Формат/Информация : Audio Coding 3
Расширение режима : CM (complete main)
Параметр Endianness формата : Big
Идентификатор кодека : A_AC3
Продолжительность : 2 ч. 12 м.
Вид битрейта : Постоянный
Битрейт : 192 Кбит/сек
Каналы : 2 канала
Расположение каналов : Front: L R
Частота : 48,0 КГц
Битовая глубина : 16 бит
Метод сжатия : С потерями
Размер потока : 182 Мбайт (1%)
Заголовок : Дублированный
Язык : Russian
Default : Да
Forced : Нет
Аудио #2
Идентификатор : 3
Формат : AC-3
Формат/Информация : Audio Coding 3
Расширение режима : CM (complete main)
Параметр Endianness формата : Big
Идентификатор кодека : A_AC3
Продолжительность : 2 ч. 12 м.
Вид битрейта : Постоянный
Битрейт : 192 Кбит/сек
Каналы : 2 канала
Расположение каналов : Front: L R
Частота : 48,0 КГц
Битовая глубина : 16 бит
Метод сжатия : С потерями
Размер потока : 182 Мбайт (1%)
Заголовок : Многоголосый закадровый (Канал "ОРТ")
Язык : Russian
Default : Нет
Forced : Нет
Аудио #3
Идентификатор : 4
Формат : AC-3
Формат/Информация : Audio Coding 3
Расширение режима : CM (complete main)
Параметр Endianness формата : Big
Идентификатор кодека : A_AC3
Продолжительность : 2 ч. 12 м.
Вид битрейта : Постоянный
Битрейт : 640 Кбит/сек
Каналы : 6 каналов
Расположение каналов : Front: L C R, Side: L R, LFE
Частота : 48,0 КГц
Битовая глубина : 16 бит
Метод сжатия : С потерями
Размер потока : 605 Мбайт (3%)
Заголовок : Одноголосый закадровый (А.Гаврилов)
Язык : Russian
Default : Нет
Forced : Нет
Аудио #4
Идентификатор : 5
Формат : DTS
Формат/Информация : Digital Theater Systems
Режим : 16
Параметр Endianness формата : Big
Идентификатор кодека : A_DTS
Продолжительность : 2 ч. 12 м.
Вид битрейта : Постоянный
Битрейт : 1509 Кбит/сек
Каналы : 6 каналов
Расположение каналов : Front: L C R, Side: L R, LFE
Частота : 48,0 КГц
Битовая глубина : 16 бит
Метод сжатия : С потерями
Размер потока : 1,39 Гбайт (8%)
Заголовок : Одноголосый закадровый (Ю.Живов)
Язык : Russian
Default : Нет
Forced : Нет
Аудио #5
Идентификатор : 6
Формат : DTS
Формат/Информация : Digital Theater Systems
Режим : 16
Параметр Endianness формата : Big
Идентификатор кодека : A_DTS
Продолжительность : 2 ч. 12 м.
Вид битрейта : Постоянный
Битрейт : 1509 Кбит/сек
Каналы : 6 каналов
Расположение каналов : Front: L C R, Side: L R, LFE
Частота : 48,0 КГц
Битовая глубина : 16 бит
Метод сжатия : С потерями
Размер потока : 1,39 Гбайт (8%)
Заголовок : Одноголосый закадровый (Е.Гаевский)
Язык : Russian
Default : Нет
Forced : Нет
Аудио #6
Идентификатор : 7
Формат : AC-3
Формат/Информация : Audio Coding 3
Расширение режима : CM (complete main)
Параметр Endianness формата : Big
Идентификатор кодека : A_AC3
Продолжительность : 2 ч. 12 м.
Вид битрейта : Постоянный
Битрейт : 640 Кбит/сек
Каналы : 6 каналов
Расположение каналов : Front: L C R, Side: L R, LFE
Частота : 48,0 КГц
Битовая глубина : 16 бит
Метод сжатия : С потерями
Размер потока : 605 Мбайт (3%)
Заголовок : Многоголосый закадровый
Язык : Ukrainian
Default : Нет
Forced : Нет
Аудио #7
Идентификатор : 8
Формат : DTS
Формат/Информация : Digital Theater Systems
Режим : 16
Параметр Endianness формата : Big
Идентификатор кодека : A_DTS
Продолжительность : 2 ч. 12 м.
Вид битрейта : Постоянный
Битрейт : 1509 Кбит/сек
Каналы : 6 каналов
Расположение каналов : Front: L C R, Side: L R, LFE
Частота : 48,0 КГц
Битовая глубина : 16 бит
Метод сжатия : С потерями
Размер потока : 1,39 Гбайт (8%)
Заголовок : Оригинальный
Язык : English
Default : Нет
Forced : Нет
Текст #1
Идентификатор : 9
Формат : UTF-8
Идентификатор кодека : S_TEXT/UTF8
Идентификатор кодека/Информация : UTF-8 Plain Text
Заголовок : Russian
Язык : Russian
Default : Нет
Forced : Нет
Текст #2
Идентификатор : 10
Формат : UTF-8
Идентификатор кодека : S_TEXT/UTF8
Идентификатор кодека/Информация : UTF-8 Plain Text
Заголовок : English
Язык : English
Default : Нет
Forced : Нет
Текст #3
Идентификатор : 11
Формат : UTF-8
Идентификатор кодека : S_TEXT/UTF8
Идентификатор кодека/Информация : UTF-8 Plain Text
Заголовок : English (SDH)
Язык : English
Default : Нет
Forced : Нет
Меню
00:00:00.000 : en:Program Start
00:17:42.936 : en:Eliminating Opposition
00:28:05.141 : en:Opening Credits
00:42:15.282 : en:Taking On the Mob
00:56:14.120 : en:A Visit with Pintero
01:13:40.916 : en:A Problem at the Lake
01:27:32.664 : en:Zavitz's Tape
01:38:20.811 : en:Rabbit on the Run
01:46:00.937 : en:Dean's Profile
02:06:35.713 : en:Unexpected Visitors
02:12:10.005 : en:Getting into Dean's Life

Скриншоты

[Профиль] [ЛС]
Кто просматривает тему:

Показать сообщения:    

Текущее время: Сегодня 04:59

Часовой пояс: GMT



Вы не можете начинать темы
Вы не можете отвечать на сообщения
Вы не можете редактировать свои сообщения
Вы не можете удалять свои сообщения
Вы не можете голосовать в опросах
Вы не можете прикреплять файлы к сообщениям
Вы не можете скачивать файлы