Впритык / Due Date (Тодд Филлипс / Todd Phillips) [2010, США, драма, комедия, BDRip-AVC] AVO (Сербин) + Sub Rus Eng + Original Eng

 
Автор Сообщение

TorrentFilm ®

Пол:

Стаж: 2 года

Сообщений: 7741



Награды: Нет

Торрент-статистика

Создавать темы 29-Фев-2016 00:09

[Цитировать]

Впритык / Due Date
Страна: США
Жанр: драма, комедия
Год выпуска: 2010
Продолжительность: 01:35:15
Перевод: Авторский (одноголосый закадровый) Ю. Сербин
Cубтитры: русские, английские
Оригинальная аудиодорожка: английский
Режиссер: Тодд Филлипс / Todd Phillips
В ролях: Роберт Дауни мл., Зак Галифианакис, Мишель Монахэн, Джейми Фокс, Джульетт Льюис, Дэнни МакБрайд, РЗА, Мэтт Уолш, Броди Стивенс, Джейкоб Ульрих
Описание: Питер готовится стать отцом и находится на грани нервного срыва. И его нервам не идет на пользу тот факт, что ему предстоит предпринять целое путешествие, да еще и в компании честолюбивого актера, чтобы успеть добраться домой к рождению собственного ребенка.
Сэмпл: http://multi-up.com/1090901
Качество видео: BDRip-AVC
Формат видео: MKV
Видео: MPEG-4 AVC/H.264 / 2443 kbps / 1024x426 / 23.976 fps
Аудио: AVO Сербин (Rus) / AC3 / 6 ch / 384 kbps / 48 kHz
Аудио 2: Original (Eng) / AC3 / 6 ch / 448 kbps / 48 kHz
Формат субтитров: softsub (SRT)
Доп. информация о субтитрах: Русские (full), Английские (full)

MediaInfo

General
Unique ID : 190447423106160751437686365823918557656 (0x8F46D6E96AA3AFDAA94B6E5BD5B649D8)
Complete name : \\MISHGANPC\Torrents\Впритык (2010) BDRip-AVC.mkv
Format : Matroska
Format version : Version 2
File size : 2.18 GiB
Duration : 1h 35mn
Overall bit rate : 3 277 Kbps
Movie name : Впритык / Due Date (2010)
Encoded date : UTC 2016-02-27 10:09:06
Writing application : mkvmerge v5.5.0 ('Healer') built on Apr 24 2012 23:47:03
Writing library : libebml v1.2.3 + libmatroska v1.3.0
Video
ID : 1
Format : AVC
Format/Info : Advanced Video Codec
Format profile : High@L4.1
Format settings, CABAC : Yes
Format settings, ReFrames : 8 frames
Codec ID : V_MPEG4/ISO/AVC
Duration : 1h 35mn
Bit rate : 2 443 Kbps
Width : 1 024 pixels
Height : 426 pixels
Display aspect ratio : 2.40:1
Frame rate mode : Constant
Frame rate : 23.976 (24000/1001) fps
Color space : YUV
Chroma subsampling : 4:2:0
Bit depth : 8 bits
Scan type : Progressive
Bits/(Pixel*Frame) : 0.234
Stream size : 1.58 GiB (73%)
Title : BDRip (AVC) / MPEG-4 AVC/H.264 / 2443 kbps / 1024x426 / 23.976 fps
Writing library : x264 core 114 r1913 5fd3dce
Encoding settings : cabac=1 / ref=8 / deblock=1:-1:-1 / analyse=0x3:0x133 / me=umh / subme=10 / psy=1 / psy_rd=1.00:0.00 / mixed_ref=1 / me_range=48 / chroma_me=1 / trellis=2 / 8x8dct=1 / cqm=0 / deadzone=21,11 / fast_pskip=0 / chroma_qp_offset=-2 / threads=6 / sliced_threads=0 / nr=0 / decimate=1 / interlaced=0 / constrained_intra=0 / bframes=8 / b_pyramid=2 / b_adapt=2 / b_bias=0 / direct=3 / weightb=1 / open_gop=0 / weightp=2 / keyint=250 / keyint_min=23 / scenecut=40 / intra_refresh=0 / rc=2pass / mbtree=0 / bitrate=2443 / ratetol=1.0 / qcomp=0.60 / qpmin=10 / qpmax=51 / qpstep=4 / cplxblur=20.0 / qblur=0.5 / ip_ratio=1.40 / pb_ratio=1.30 / aq=2:1.00 / zones=129477,137040,q=36
Language : English
Default : Yes
Forced : Yes
Audio #1
ID : 2
Format : AC-3
Format/Info : Audio Coding 3
Mode extension : CM (complete main)
Format settings, Endianness : Big
Codec ID : A_AC3
Duration : 1h 35mn
Bit rate mode : Constant
Bit rate : 384 Kbps
Channel(s) : 6 channels
Channel positions : Front: L C R, Side: L R, LFE
Sampling rate : 48.0 KHz
Frame rate : 31.250 fps (1536 spf)
Compression mode : Lossy
Stream size : 262 MiB (12%)
Title : AVO Сербин (Rus) / AC3 / 6 ch / 384 kbps / 48 kHz
Language : Russian
Default : Yes
Forced : Yes
Audio #2
ID : 3
Format : AC-3
Format/Info : Audio Coding 3
Mode extension : CM (complete main)
Format settings, Endianness : Big
Codec ID : A_AC3
Duration : 1h 35mn
Bit rate mode : Constant
Bit rate : 448 Kbps
Channel(s) : 6 channels
Channel positions : Front: L C R, Side: L R, LFE
Sampling rate : 48.0 KHz
Frame rate : 31.250 fps (1536 spf)
Compression mode : Lossy
Stream size : 305 MiB (14%)
Title : Original (Eng) / AC3 / 6 ch / 448 kbps / 48 kHz
Language : English
Default : No
Forced : No
Text #1
ID : 4
Format : UTF-8
Codec ID : S_TEXT/UTF8
Codec ID/Info : UTF-8 Plain Text
Title : Full (Rus) / S_TEXT/UTF8
Language : Russian
Default : No
Forced : No
Text #2
ID : 5
Format : UTF-8
Codec ID : S_TEXT/UTF8
Codec ID/Info : UTF-8 Plain Text
Title : Full (Eng) / S_TEXT/UTF8
Language : English
Default : No
Forced : No
Menu
00:00:00.000 : :Chapter 01
00:09:58.055 : :Chapter 02
00:18:37.157 : :Chapter 03
00:30:19.943 : :Chapter 04
00:40:59.415 : :Chapter 05
00:50:43.457 : :Chapter 06
00:58:39.807 : :Chapter 07
01:08:47.790 : :Chapter 08
01:18:34.418 : :Chapter 09
01:28:30.555 : :Chapter 10

Скриншот c названием фильма

Скриншоты

[Профиль] [ЛС]

Создавать темы 12-Июн-2016 07:53 (спустя 3 месяца 12 дней)

Топик был перенесен из форума Фильмы 2011 года в форум Фильмы 2010 года
Russian Mafia
 
Показать сообщения:    

Текущее время: Сегодня 02:42

Часовой пояс: GMT



Вы не можете начинать темы
Вы не можете отвечать на сообщения
Вы не можете редактировать свои сообщения
Вы не можете удалять свои сообщения
Вы не можете голосовать в опросах
Вы не можете прикреплять файлы к сообщениям
Вы не можете скачивать файлы