Впереди день [1-8 серии из 8] (2018) HDTVRip

 
Автор Сообщение

Pensioner ®

Стаж: 1 год 10 месяцев

Сообщений: 377

Откуда: Казахстан



Награды: 1 (Подробнее)

За внесенный вклад в развитие сайта (Количество: 1)
Торрент-статистика

Создавать темы 12-Окт-2018 14:47

[Цитировать]

Оригинальное название: Впереди день
Год выпуска: 2018
Жанр: Мелодрама
Выпущено: Россия, Кинокомпания Русское
Режиссер: Евгений Семёнов
В ролях: Екатерина Редникова, Ирина Горячева, Мария Куликова, Сергей Горобченко, Майя Горбань, Александра Тулинова, Яна Гурьянова, Михаил Пшеничный, Александр Никитин, Александр Асташёнок, Виталий Егоров, Денис Старков, Евгений Березовский, Севастьян Бугаев
О фильме: Лихие 90-е… В центре сюжета три женщины – подруги, жены "новых русских" Нина и Лена (Екатерина Редникова, Ирина Горячева) и Мила (Мария Куликова), домработница Нины. По странному совпадению всем трем скоро рожать. Как выяснится, от Кирилла (Сергей Горобченко) беременна не только его жена Нина, но и Мила! Женщины встречаются в ресторане, чтобы выяснить отношения и разобраться в сложившейся ситуации. И никто не знает, чем бы это закончилось – скандалом с битьем посуды, проклятьями в адрес Кирилла, взаимными обвинениями, – но внезапно вспыхнувшая бандитская разборка становится причиной неожиданного поворота в сюжете. У женщин начинаются роды… У всех трех одновременно. Побывав под бандитскими пулями, Нина, Лена и Мила становятся подругами на всю жизнь. Но как же им быть с неверным мужем, который в этот день стал отцом сразу двух дочек? Кирилл принимает неожиданное решение – развестись с Ниной и жениться на домработнице… Проходит 17 лет. Мила больше не прислуга. Теперь она богатая светская дама. А Нина и Лена, наоборот, с трудом сводят концы с концами, и лишь поддержка Милы помогает им удержаться на плаву. Их дочки – Ира (Майя Горбань), Оля (Александра Тулинова) и Маша (Яна Гурьянова), которые родились в один день, – тоже лучшие подруги. Они собираются вместе, чтобы отметить общий день рождения. Но веселье омрачает появление незваного гостя: бывший сообщник Кирилла требует от его близких вернуть его долги. И в один миг праздник превращается в свою противоположность…
Файл:
Качество: HDTVRip
Видео: XviD, ~ 1500 Кбит/с, 720x400
Аудио: AC3, 2 ch, 192 Кбит/с
Продолжительность: 8 x ~ 00:50:00
Язык: Русский
Доп. ин.-ция

MediaInfo:

Общее
Полное имя : D:\моё видио\Впереди день. .2018.HDTVRip.Files-x\01.Впереди день. .2018.HDTVRip.Files-x.avi
Формат : AVI
Формат/Информация : Audio Video Interleave
Размер файла : 603 Мбайт
Продолжительность : 49 м.
Общий поток : 1699 Кбит/сек
Программа кодирования : VirtualDubMod 1.5.10.3 | www.virtualdub-fr.org || (build 2550/release)
Библиотека кодирования : VirtualDubMod build 2550/release
Видео
Идентификатор : 0
Формат : MPEG-4 Visual
Профиль формата : Advanced Simple@L5
Параметр BVOP формата : 1
Параметр QPel формата : Нет
Параметр GMC формата : Без точки перехода
Параметр матрицы формата : Выборочная
Идентификатор кодека : XVID
Идентификатор кодека/Подсказка : XviD
Продолжительность : 49 м.
Битрейт : 1497 Кбит/сек
Ширина : 720 пикселей
Высота : 400 пикселей
Соотношение сторон : 16:9
Частота кадров : 25,000 кадров/сек
Цветовое пространство : YUV
Субдискретизация насыщенности : 4:2:0
Битовая глубина : 8 бит
Тип развёртки : Прогрессивная
Метод сжатия : С потерями
Бит/(Пиксели*Кадры) : 0.208
Размер потока : 532 Мбайт (88%)
Библиотека кодирования : XviD 73
Аудио
Идентификатор : 1
Формат : AC-3
Формат/Информация : Audio Coding 3
Расширение режима : CM (complete main)
Параметр Endianness формата : Big
Идентификатор кодека : 2000
Продолжительность : 49 м.
Вид битрейта : Постоянный
Битрейт : 192 Кбит/сек
Каналы : 2 канала
Расположение каналов : Front: L R
Частота : 48,0 КГц
Битовая глубина : 16 бит
Метод сжатия : С потерями
Размер потока : 68,2 Мбайт (11%)
Выравнивание : Разделение по промежуткам
Продолжительность промежутка : 40 мс. (1,00 видеокадр)
Время предзагрузки промежутка : 500 мс.

Скриншоты

Добавлены 1-8 серии.
Сериал залит полностью.
[Профиль] [ЛС]
Показать сообщения:    

Текущее время: Сегодня 07:01

Часовой пояс: GMT



Вы не можете начинать темы
Вы не можете отвечать на сообщения
Вы не можете редактировать свои сообщения
Вы не можете удалять свои сообщения
Вы не можете голосовать в опросах
Вы не можете прикреплять файлы к сообщениям
Вы не можете скачивать файлы