Во все тяжкие / Breaking Bad [s02] (2009) BDRip 1080 by xIKARx

 
Автор Сообщение

Russian Mafia ®

Пол:

Стаж: 1 год 8 месяцев

Сообщений: 4256



Награды: 10 (Подробнее)

Top Releaser 2 (Количество: 1) Mega Seeder 5 (Количество: 1) Mega Seeder 3 (Количество: 1)
Торрент-статистика

Создавать темы 27-Окт-2015 13:07

[Цитировать]

Информация о фильме
Название: Во все тяжкие
Оригинальное название: Breaking Bad
Год выхода: 2009
Жанр: криминальная драма, детектив, триллер
Режиссер: Мишель МакЛарен, Адам Бернштейн, Винс Гиллиган
В ролях: Брайан Крэнстон, Анна Ганн, Аарон Пол, Дин Норрис, Бетси Брандт, АрДжей Митти, Боб Оденкёрк, Джанкарло Эспозито, Джонатан Бэнкс, Стивен Майкл Квезада
О фильме:
Школьный учитель химии Уолтер Уайт узнаёт, что болен раком лёгких. Учитывая сложное финансовое состояние дел семьи, а также перспективы, Уолтер решает заняться изготовлением метамфетамина. Для этого он привлекает своего бывшего ученика Джесси Пинкмана, когда-то исключённого из школы при активном содействии Уайта. Пинкман сам занимался «варкой мета», но накануне, в ходе рейда УБН, он лишился подельника и лаборатории…

mi

General
Unique ID : 192613728781299608055554556512269711604 (0x90E80E071C4E258287D19532373338F4)
Complete name : V:VIDEOВо все тяжкие (2008-2013)2 seasonBreaking.Bad_s02.e02.mkv
Format : Matroska
Format version : Version 4 / Version 2
File size : 2.36 GiB
Duration : 47mn 57s
Overall bit rate : 7 031 Kbps
Encoded date : UTC 2015-10-22 07:25:39
Writing application : mkvmerge v8.3.0 ('Over the Horizon') 64bit
Writing library : libebml v1.3.1 + libmatroska v1.4.2
DURATION : 00:45:07.488000000
NUMBER_OF_FRAMES : 550
NUMBER_OF_BYTES : 16101
_STATISTICS_WRITING_APP : mkvmerge v8.3.0 ('Over the Horizon') 64bit
_STATISTICS_WRITING_DATE_UT : 2015-10-22 07:25:39
_STATISTICS_TAGS : BPS DURATION NUMBER_OF_FRAMES NUMBER_OF_BYTES
Video
ID : 1
Format : AVC
Format/Info : Advanced Video Codec
Format profile : High@L3
Format settings, CABAC : No
Format settings, ReFrames : 1 frame
Codec ID : V_MPEG4/ISO/AVC
Duration : 47mn 57s
Bit rate : 2 364 Kbps
Nominal bit rate : 2 500 Kbps
Width : 1 920 pixels
Height : 1 080 pixels
Display aspect ratio : 16:9
Frame rate mode : Constant
Frame rate : 23.976 fps
Color space : YUV
Chroma subsampling : 4:2:0
Bit depth : 8 bits
Scan type : Progressive
Bits/(Pixel*Frame) : 0.048
Stream size : 811 MiB (34%)
Title : Breaking.Bad_s02.e02
Writing library : x264 core 116 r2019 9cc407d
Encoding settings : cabac=0 / ref=1 / deblock=1:0:0 / analyse=0x3:0x113 / me=hex / subme=7 / psy=1 / psy_rd=1.00:0.00 / mixed_ref=0 / me_range=16 / chroma_me=1 / trellis=1 / 8x8dct=1 / cqm=0 / deadzone=21,11 / fast_pskip=1 / chroma_qp_offset=-2 / threads=6 / sliced_threads=0 / nr=0 / decimate=1 / interlaced=0 / bluray_compat=0 / constrained_intra=0 / bframes=0 / weightp=2 / keyint=250 / keyint_min=23 / scenecut=40 / intra_refresh=0 / rc_lookahead=40 / rc=2pass / mbtree=1 / bitrate=2500 / ratetol=1.0 / qcomp=0.60 / qpmin=0 / qpmax=69 / qpstep=4 / cplxblur=20.0 / qblur=0.5 / ip_ratio=1.40 / aq=1:1.00
Default : Yes
Forced : No
Audio #1
ID : 2
Format : DTS
Format/Info : Digital Theater Systems
Mode : 16
Format settings, Endianness : Big
Codec ID : A_DTS
Duration : 47mn 57s
Bit rate mode : Constant
Bit rate : 1 509 Kbps
Channel(s) : 6 channels
Channel positions : Front: L C R, Side: L R, LFE
Sampling rate : 48.0 KHz
Bit depth : 24 bits
Compression mode : Lossy
Stream size : 518 MiB (21%)
Title : Кубик в Кубе
Language : Russian
Default : Yes
Forced : No
Audio #2
ID : 3
Format : DTS
Format/Info : Digital Theater Systems
Mode : 16
Format settings, Endianness : Big
Codec ID : A_DTS
Duration : 47mn 57s
Bit rate mode : Constant
Bit rate : 1 509 Kbps
Channel(s) : 6 channels
Channel positions : Front: L C R, Side: L R, LFE
Sampling rate : 48.0 KHz
Bit depth : 24 bits
Compression mode : Lossy
Stream size : 518 MiB (21%)
Title : Lost Films
Language : Russian
Default : No
Forced : No
Audio #3
ID : 4
Format : DTS
Format/Info : Digital Theater Systems
Mode : 16
Format settings, Endianness : Big
Codec ID : A_DTS
Duration : 47mn 57s
Bit rate mode : Constant
Bit rate : 1 509 Kbps
Channel(s) : 6 channels
Channel positions : Front: L C R, Side: L R, LFE
Sampling rate : 48.0 KHz
Bit depth : 24 bits
Compression mode : Lossy
Stream size : 518 MiB (21%)
Title : Original
Language : English
Default : No
Forced : No
Text #1
ID : 5
Format : UTF-8
Codec ID : S_TEXT/UTF8
Codec ID/Info : UTF-8 Plain Text
Language : Russian
Default : Yes
Forced : No
Text #2
ID : 6
Format : UTF-8
Codec ID : S_TEXT/UTF8
Codec ID/Info : UTF-8 Plain Text
Language : English
Default : No
Forced : No
Menu
00:00:00.000 : :Chapter 01
00:01:36.298 : :Chapter 02
00:10:33.282 : :Chapter 03
00:24:15.685 : :Chapter 04
00:37:03.340 : :Chapter 05
00:47:16.213 : :Chapter 06

Страна: США
Студия: Sony Pictures
Продолжительность: 10:11:00
Перевод: 1. Кубик в Кубе (рус. многоголосый закадровый)
2. Lost Films (рус. многоголосый закадровый)
Файл
Кодек: h.264
Качество: BDRip 1080
Видео: 1920х1080 / 2500 / 23,976
Звук:
1. (Рус.) DTS | 1509 Кбит/сек | 6 каналов | 48,0 КГц
2. (Рус.) DTS | 1509 Кбит/сек | 6 каналов | 48,0 КГц
3. (Eng.) DTS | 1509 Кбит/сек | 6 каналов | 48,0 КГц
Субтитры:
1. Русские (на испанскую речь)
2. Русские полные
3. Английские полные

Скриншоты



[Профиль] [ЛС]
Кто просматривает тему:

Показать сообщения:    

Текущее время: Сегодня 08:56

Часовой пояс: GMT



Вы не можете начинать темы
Вы не можете отвечать на сообщения
Вы не можете редактировать свои сообщения
Вы не можете удалять свои сообщения
Вы не можете голосовать в опросах
Вы не можете прикреплять файлы к сообщениям
Вы не можете скачивать файлы